<?xml version="1.0" standalone="no"?>
<!DOCTYPE svg PUBLIC "-//W3C//DTD SVG 1.1//EN" "http://www.w3.org/Graphics/SVG/1.1/DTD/svg11.dtd">
<svg xmlns="http://www.w3.org/2000/svg">
<defs >
<font id="InstrumentSerif" horiz-adv-x="435" ><font-face
    font-family="Instrument Serif"
    units-per-em="1000"
    panose-1="0 0 0 0 0 0 0 0 0 0"
    ascent="990"
    descent="-310"
    alphabetic="0" />
<glyph unicode=" " glyph-name="space" horiz-adv-x="170" />
<glyph unicode="!" glyph-name="exclam" horiz-adv-x="275" d="M119 182Q107 184 110 199Q121 251 131 312T151 434T167 549T180 642T190 698Q195 723 209 735T242 748Q266 748 276 730T280 685Q276 669 264 631T235 540T200 427T164 308T134 196Q131 180 119
182ZM80 -9Q59 -9 46 4T33 38Q33 64 51 80T89 96Q109 96 122 83T136 49Q136 23 118 7T80 -9Z" />
<glyph unicode="&quot;" glyph-name="quotedbl" horiz-adv-x="374" d="M174 490Q159 490 164 509Q171 542 171 563T171 607T169 663Q169 692 182 711T222 731Q242 731 251 719T261 687Q261 663 248 641T218 588T187 505Q184 490 174 490ZM313 490Q298 490 303
509Q310 542 310 563T310 607T308 663Q308 692 321 711T361 731Q381 731 390 719T400 687Q400 663 387 641T357 588T326 505Q323 490 313 490Z" />
<glyph unicode="#" glyph-name="numbersign" horiz-adv-x="629" d="M127 0L176 213Q179 230 163 230H41V260H169Q186 260 191 278L229 443Q232 460 216 460H94V490H222Q239 490 244 507L293 720H325L276 507Q273 490 289 490H447Q464 490 469 507L518 720H550L501
507Q498 490 514 490H636V460H508Q491 460 486 442L448 277Q445 260 461 260H583V230H455Q438 230 433 213L384 0H352L401 213Q404 230 388 230H230Q213 230 208 213L159 0H127ZM236 260H394Q411 260 416 278L454 443Q457 460 441 460H283Q266 460 261 442L223
277Q220 260 236 260Z" />
<glyph unicode="$" glyph-name="dollar" horiz-adv-x="424" d="M126 -109Q118 -109 120 -101L142 -7Q104 -3 68 9T11 38Q6 43 5 48T5 63L33 220Q36 238 49 238Q61 238 61 218L62 179Q64 106 84 69T149 24L224 351Q221 354 218 358Q167 415 143 462T118 561Q118
602 138 640T198 704T302 730Q307 730 312 730L333 822Q335 830 343 830H352Q360 830 358 822L336 728Q398 722 435 691Q449 680 445 658L417 512Q414 497 403 497Q392 497 390 514L389 535Q386 601 374 641T329 695L264 413Q267 408 272 403Q320 346 347 294T374
193Q374 134 348 89T276 17T173 -9Q170 -9 166 -9L145 -101Q143 -109 135 -109H126ZM183 586Q183 548 196 516T244 438L305 700Q299 701 293 701Q253 701 229 683T194 639T183 586ZM309 170Q309 207 292 247T244 327L173 21Q176 21 179 21Q235 21 272 61T309 170Z"
/>
<glyph unicode="%" glyph-name="percent" horiz-adv-x="591" d="M195 382Q149 382 123 417T96 511Q96 569 118 618T176 698T252 729Q299 729 325 694T352 602Q352 545 330 495T271 413T195 382ZM22 0Q15 0 13 4T14 14L593 712Q599 720 607 720H621Q629 720 631
716T629 706L50 8Q44 0 36 0H22ZM195 402Q227 402 251 436T289 525T303 636Q303 671 290 690T253 709Q221 709 197 675T158 587T144 476Q144 441 157 422T195 402ZM387 -10Q341 -10 315 25T288 119Q288 177 310 226T368 306T444 337Q491 337 517 302T544 210Q544
153 522 103T463 21T387 -10ZM387 10Q419 10 443 44T481 133T495 244Q495 279 482 298T445 317Q413 317 389 283T350 195T336 84Q336 49 349 30T387 10Z" />
<glyph unicode="&amp;" glyph-name="ampersand" horiz-adv-x="525" d="M223 -9Q162 -9 116 17T45 89T19 196Q19 255 42 306T106 394T198 447Q168 486 168 545Q168 597 191 639T255 705T346 730Q378 730 407 720T456 691Q470 678 466 658L438 512Q435 497 424 497Q412
497 411 514L410 535Q406 618 387 652T325 687Q289 687 261 668T215 616T198 541Q198 482 230 454Q245 456 260 456Q313 456 313 430Q313 406 275 406Q244 406 218 426Q91 387 91 218Q91 126 131 75T241 23Q291 23 331 48T396 114T420 207Q420 285 346 285Q317
285 301 274T284 245Q284 230 294 225T317 217T340 207T350 179Q350 161 337 151T303 140Q276 140 260 160T244 213Q244 250 266 277T325 316T408 320L439 315Q504 305 504 331Q504 343 493 348T468 357T443 370T432 397Q432 414 444 425T478 436Q507 436 523 416T539
361Q539 318 512 292T443 269Q450 246 450 214Q450 150 421 100T340 20T223 -9Z" />
<glyph unicode="&apos;" glyph-name="quotesingle" horiz-adv-x="235" d="M174 490Q159 490 164 509Q171 542 171 563T171 607T169 663Q169 692 182 711T222 731Q242 731 251 719T261 687Q261 663 248 641T218 588T187 505Q184 490 174 490Z" />
<glyph unicode="(" glyph-name="parenleft" horiz-adv-x="346" d="M213 -119Q207 -117 205 -114Q174 -82 145 -33T97 80T78 220Q78 332 117 430T228 605T398 731Q401 733 407 733Q416 732 414 724Q412 718 406 714Q334 668 283 607T201 476T154 336T139 200Q139
101 158 29T220 -100Q224 -107 223 -112Q223 -121 213 -119Z" />
<glyph unicode=")" glyph-name="parenright" horiz-adv-x="346" d="M157 733Q163 731 165 728Q196 697 225 648T273 534T292 394Q292 282 253 184T143 9T-28 -117Q-31 -119 -37 -119Q-46 -118 -44 -110Q-42 -104 -36 -100Q36 -54 87 7T169 138T216 279T231 414Q231
513 212 585T150 714Q146 721 147 726Q147 735 157 733Z" />
<glyph unicode="*" glyph-name="asterisk" horiz-adv-x="449" d="M262 418Q244 420 237 433T233 462Q237 477 246 490T266 519T287 559Q289 565 286 567T277 566Q242 546 226 527T188 499Q174 493 160 498T139 520Q134 537 142 551T165 572Q181 578 196 577T229
575T273 581Q288 584 276 593Q256 607 238 611T206 618T179 631Q168 640 166 655T177 686Q191 700 206 701T232 693Q244 683 250 670T263 640T287 604Q290 600 293 601T298 609Q301 635 298 652T291 685T291 715Q294 730 306 740T338 748Q356 746 363 733T367 704Q364
689 355 676T334 648T313 607Q312 601 314 599T322 599Q346 612 360 625T385 649T412 667Q426 673 440 668T461 646Q466 629 458 615T435 594Q420 589 405 590T371 592T327 585Q312 582 324 573Q344 560 362 556T395 548T421 535Q432 526 434 511T423 480Q410 466
395 465T368 473Q357 483 351 496T338 525T314 561Q310 565 307 564T302 557Q300 532 303 514T309 482T309 451Q306 436 294 426T262 418Z" />
<glyph unicode="+" glyph-name="plus" horiz-adv-x="531" d="M234 153Q224 153 227 163L271 354H93Q83 354 85 364L88 378Q91 388 101 388H279L323 580Q325 590 335 590H351Q361 590 359 580L315 388H492Q502 388 499 378L496 364Q494 354 484 354H307L263 163Q260
153 250 153H234Z" />
<glyph unicode="," glyph-name="comma" horiz-adv-x="219" d="M-13 -150Q-21 -155 -28 -155T-36 -147Q-36 -140 -26 -133Q3 -113 26 -83T50 -24Q50 -8 42 1T25 20T16 46Q16 68 30 82T66 96Q89 96 102 82T116 43Q116 11 98 -26T50 -96T-13 -150Z" />
<glyph unicode="-" glyph-name="hyphen" horiz-adv-x="426" d="M93 259Q83 259 85 269L88 283Q90 293 101 293H343Q353 293 350 283L347 269Q345 259 335 259H93Z" />
<glyph unicode="." glyph-name="period" horiz-adv-x="219" d="M62 -9Q41 -9 28 4T15 38Q15 64 33 80T71 96Q91 96 104 83T118 49Q118 23 100 7T62 -9Z" />
<glyph unicode="/" glyph-name="slash" horiz-adv-x="258" d="M-71 -130Q-81 -130 -76 -119L338 781Q342 790 351 790H363Q373 790 369 779L-46 -121Q-50 -130 -59 -130H-71Z" />
<glyph unicode="0" glyph-name="zero" horiz-adv-x="461" d="M185 -9Q112 -9 80 57T48 234Q48 291 61 358T100 490T159 610T236 697T325 730Q398 730 430 664T462 487Q462 431 449 364T410 232T351 112T274 24T185 -9ZM190 17Q223 17 251 46T304 124T346 232T378
352T397 466T404 557Q404 633 383 668T320 704Q287 704 259 675T206 598T164 490T132 370T113 255T106 164Q106 124 113 91T139 38T190 17Z" />
<glyph unicode="1" glyph-name="one" horiz-adv-x="248" d="M-35 0Q-50 0 -50 10Q-50 22 -35 23L5 27Q27 29 36 37T50 66L187 660Q191 677 183 682T159 686L122 682Q114 681 111 685T107 693Q107 706 127 709Q181 718 207 726T246 735Q266 735 262 713L112 66Q108
45 113 37T139 27L170 23Q182 22 182 12Q182 0 164 0H-35Z" />
<glyph unicode="2" glyph-name="two" horiz-adv-x="404" d="M-19 0Q-36 0 -36 10Q-36 20 -20 37L144 225Q176 262 214 306T287 400T344 500T367 600Q367 643 344 667T274 691Q231 691 191 662T124 561Q119 547 108 547Q101 547 98 553T98 568Q119 628 150 663T217
714T289 730Q358 730 398 693T439 594Q439 541 411 490T340 390T249 295T165 207L55 83Q47 74 49 67T65 60H177Q216 60 240 69T283 100T321 166L341 211Q346 222 356 222Q371 222 366 204L312 19Q309 8 301 4T282 0H-19Z" />
<glyph unicode="3" glyph-name="three" horiz-adv-x="373" d="M87 -9Q43 -9 11 10T-22 66Q-22 86 -12 97T13 108Q30 108 36 99T44 77T48 49T60 26T93 17Q136 17 169 42T224 107T258 195T270 287Q270 348 251 380T184 412Q165 412 150 408T122 398Q111 393 105
395T98 404Q98 411 112 421L197 479Q259 521 287 559T315 639Q315 667 300 682T256 698Q221 698 192 673T149 597Q146 584 134 584Q119 584 124 604Q138 666 179 698T272 730Q325 730 354 705T384 639Q384 590 344 547T217 461L189 447Q184 445 185 442T192 439Q203
442 211 442Q269 442 305 397T341 272Q341 225 320 176T264 85T183 17T87 -9Z" />
<glyph unicode="4" glyph-name="four" horiz-adv-x="394" d="M115 0Q100 0 100 10Q100 21 115 23L162 29Q184 32 192 39T204 66L234 195Q237 210 222 210H19Q3 210 3 222Q3 228 7 235T19 252L365 710Q372 720 383 720H403Q411 720 412 716T408 703L71 280Q61 266
75 266H237Q250 266 253 278L299 476Q302 486 313 492L352 513Q360 518 364 515T367 504L316 280Q313 266 326 266H370Q383 266 380 254L372 222Q369 210 357 210H313Q299 210 296 196L266 66Q262 45 266 38T291 27L309 24Q318 23 321 20T324 12Q324 0 306 0H115Z"
/>
<glyph unicode="5" glyph-name="five" horiz-adv-x="387" d="M103 -9Q77 -9 45 -1T-9 24T-32 69Q-32 85 -22 96T4 108Q20 108 27 99T38 77T47 49T67 26T108 17Q150 17 182 37T236 90T270 165T282 248Q282 325 244 371T123 437Q109 441 115 454L224 709Q229 720
242 720H397Q414 720 422 726T437 739T451 745Q468 745 457 724L429 670Q424 660 411 660H250Q237 660 232 649L170 502Q165 490 178 486Q268 462 309 400T350 257Q350 208 333 161T283 76T205 14T103 -9Z" />
<glyph unicode="6" glyph-name="six" horiz-adv-x="411" d="M167 -9Q122 -9 92 17T47 89T32 191Q32 258 54 328T116 465T208 586T322 679T450 730Q468 734 468 719Q468 712 464 710T452 705Q360 679 292 615T176 452Q173 446 176 443T185 443Q198 450 214 453T245
456Q308 456 344 405T380 270Q380 231 365 183T322 92T255 20T167 -9ZM165 17Q195 17 219 38T262 94T292 169T310 246T316 312Q316 369 298 400T241 431Q208 431 183 410T139 355T108 280T91 202T85 135Q85 80 104 49T165 17Z" />
<glyph unicode="7" glyph-name="seven" horiz-adv-x="365" d="M41 0Q34 0 32 4T33 15L402 644Q412 660 394 660H172Q156 660 147 654T131 642T117 635Q109 635 109 641T112 656L139 708Q145 720 157 720H452Q465 720 465 711Q465 707 462 699T450 675L83 11Q78
0 66 0H41Z" />
<glyph unicode="8" glyph-name="eight" horiz-adv-x="437" d="M186 -9Q137 -9 97 12T34 72T11 159Q11 211 34 252T99 324T190 373Q197 375 198 379T195 388Q158 424 141 465T124 553Q124 600 147 640T213 705T311 730Q356 730 390 711T443 658T463 585Q463 540
442 503T385 439T305 395Q299 393 299 388T302 379Q350 335 371 294T393 208Q393 148 366 99T292 21T186 -9ZM290 411Q334 433 359 467T396 538T407 602Q407 646 383 674T309 703Q265 703 238 683T199 633T186 576Q186 528 203 491T264 413Q270 407 276 407T290
411ZM189 17Q240 17 270 41T314 102T328 174Q328 229 307 268T232 354Q219 365 206 358Q155 334 125 298T82 222T68 146Q68 99 85 71T130 30T189 17Z" />
<glyph unicode="9" glyph-name="nine" horiz-adv-x="414" d="M13 -8Q-5 -11 -5 3Q-5 8 -2 11T11 17Q178 64 287 290Q290 296 287 299T278 299Q254 286 218 286Q156 286 120 336T83 472Q83 522 101 568T149 650T218 708T299 730Q361 730 396 678T431 531Q431 461
408 390T345 253T251 133T137 41T13 -8ZM222 311Q264 311 299 348T356 446T378 577Q378 638 357 671T299 704Q269 704 242 682T193 623T159 538T147 440Q147 379 167 345T222 311Z" />
<glyph unicode=":" glyph-name="colon" horiz-adv-x="299" d="M62 -9Q41 -9 28 4T15 38Q15 64 33 80T71 96Q91 96 104 83T118 49Q118 23 100 7T62 -9ZM149 371Q128 371 115 384T102 418Q102 444 120 460T158 476Q178 476 191 463T205 429Q205 403 187 387T149 371Z" />
<glyph unicode=";" glyph-name="semicolon" horiz-adv-x="301" d="M-13 -150Q-21 -155 -28 -155T-36 -147Q-36 -140 -26 -133Q3 -113 26 -83T50 -24Q50 -8 42 1T25 20T16 46Q16 68 30 82T66 96Q89 96 102 82T116 43Q116 11 98 -26T50 -96T-13 -150ZM149 371Q128
371 115 384T102 418Q102 444 120 460T158 476Q178 476 191 463T205 429Q205 403 187 387T149 371Z" />
<glyph unicode="&lt;" glyph-name="less" horiz-adv-x="531" d="M521 533Q528 535 531 532T533 523L529 508Q526 498 516 495L132 363L455 231Q465 228 462 218L460 209Q459 203 454 200T444 199L91 345Q81 349 84 359L87 373Q90 384 100 387L521 533Z" />
<glyph unicode="=" glyph-name="equal" horiz-adv-x="531" d="M116 454Q106 454 108 464L111 478Q114 488 124 488H515Q525 488 522 478L519 464Q517 454 507 454H116ZM70 254Q60 254 62 264L65 278Q68 288 77 288H468Q479 288 476 278L473 264Q471 254 461 254H70Z" />
<glyph unicode="&gt;" glyph-name="greater" horiz-adv-x="531" d="M61 199Q54 197 51 200T49 209L53 224Q56 234 66 237L450 369L127 501Q117 504 120 514L122 523Q124 529 128 532T138 533L491 387Q501 383 498 373L495 359Q492 348 482 345L61 199Z" />
<glyph unicode="?" glyph-name="question" horiz-adv-x="358" d="M128 186Q124 186 121 190T119 204L152 370Q157 397 165 414T195 446L225 468Q278 506 306 550T335 656Q335 685 320 701T282 717Q243 717 214 689T146 590Q139 577 130 578Q119 580 124 597L154
716Q158 729 170 736Q184 744 203 747T246 751Q282 751 314 739T366 700T387 630Q387 559 351 505T250 405L201 370Q191 363 186 353T176 325L143 200Q139 186 128 186ZM95 -9Q74 -9 61 4T48 38Q48 64 66 80T104 96Q124 96 137 83T151 49Q151 23 133 7T95 -9Z"
/>
<glyph unicode="@" glyph-name="at" horiz-adv-x="665" d="M329 -81Q248 -81 181 -50T74 41T34 185Q34 269 67 341T155 466T279 550T420 580Q487 580 537 554T615 479T643 363Q643 320 627 268T581 170T512 93T425 63Q397 63 379 78T361 120Q361 134 365 149T384
190Q387 195 384 196T377 193Q340 138 299 101T222 63Q201 63 189 77T176 119Q176 154 191 196T233 281T292 358T360 414T427 436Q444 436 458 427T478 407Q483 399 487 399Q491 399 495 405Q503 419 515 419Q523 419 524 413T522 398L415 172Q398 135 401 114T433
93Q468 93 499 119T554 187T591 275T605 359Q605 457 556 505T415 554Q352 554 302 530T213 466T148 375T109 272T96 171Q96 93 127 44T212 -29T332 -52Q399 -52 450 -25Q458 -21 464 -20T475 -27Q479 -39 465 -48Q405 -81 329 -81ZM243 98Q259 98 282 116T330
165T379 231T419 302T442 363Q447 383 443 396T418 410Q395 410 369 388T318 329T272 253T239 176T226 117Q226 98 243 98Z" />
<glyph unicode="A" glyph-name="A" horiz-adv-x="457" d="M-62 0Q-74 0 -74 10Q-74 19 -58 23L-42 26Q-22 30 -8 45T20 89L319 714Q324 724 329 727T338 730Q343 730 346 727T350 714L361 80Q362 52 368 42T393 26L406 23Q418 20 418 11Q418 0 401 0H236Q223 0
223 10Q223 21 243 23L263 25Q280 27 286 36T293 67L291 222Q291 248 264 248H157Q131 248 118 222L53 88Q26 31 71 25L85 23Q100 21 100 11Q100 0 83 0H-62ZM161 278H273Q290 278 290 295L288 568H283L152 295Q148 288 151 283T161 278Z" />
<glyph unicode="B" glyph-name="B" horiz-adv-x="479" d="M-22 0Q-36 0 -36 10Q-36 21 -16 24L4 27Q26 30 34 37T47 66L183 654Q188 674 183 681T158 693L138 697Q125 700 125 708Q125 720 143 720H334Q401 720 443 683T485 587Q485 531 445 481T338 408Q333 407
333 404T338 398Q390 379 417 337T444 239Q444 173 409 119T315 32T182 0H-22ZM252 411Q296 411 332 434T391 496T413 583Q413 636 387 665T313 695Q261 695 252 655L209 466Q202 436 212 424T252 411ZM185 25Q238 25 280 53T346 132T371 244Q371 312 340 349T251
386Q189 386 178 333L123 94Q107 25 185 25Z" />
<glyph unicode="C" glyph-name="C" horiz-adv-x="475" d="M256 -9Q150 -9 103 58T55 252Q55 313 70 379T113 507T182 620T272 700T382 730Q452 730 509 683Q519 675 516 661L486 510Q483 494 471 494Q459 494 459 510L458 549Q456 632 434 667T371 702Q332 702
296 671T229 587T175 471T138 343T125 224Q125 134 152 77T244 20Q282 20 311 47T372 142L394 189Q399 201 409 201Q425 201 420 182L380 26Q376 11 364 8Q347 2 315 -3T256 -9Z" />
<glyph unicode="D" glyph-name="D" horiz-adv-x="536" d="M-22 0Q-36 0 -36 10Q-36 21 -16 24L4 27Q26 30 34 37T47 66L183 654Q188 675 183 682T158 693L138 697Q125 700 125 708Q125 720 143 720H344Q430 720 480 657T531 468Q531 376 502 292T424 142T313 38T182
0H-22ZM187 26Q244 26 294 68T382 182T441 346T463 534Q463 614 430 654T338 694Q263 694 246 621L126 99Q117 59 133 43T187 26Z" />
<glyph unicode="E" glyph-name="E" horiz-adv-x="454" d="M-22 0Q-36 0 -36 10Q-36 21 -16 24L4 27Q26 30 34 37T47 66L183 654Q188 675 183 682T158 693L138 697Q125 700 125 708Q125 720 143 720H477Q503 720 498 697L467 531Q464 514 451 514Q437 514 439 527L442
562Q447 613 434 642T394 683T332 695Q292 695 274 684T249 643L194 402Q191 388 205 388H256Q300 388 320 435L342 485Q347 498 358 498Q364 498 367 494T369 481L317 256Q312 239 300 239Q288 239 288 252L289 301Q290 336 281 347T248 358H198Q183 358 180 344L122
93Q114 57 129 41T193 25Q223 25 252 34T308 71T357 149L381 205Q386 218 397 218Q412 218 407 201L356 23Q350 0 326 0H-22Z" />
<glyph unicode="F" glyph-name="F" horiz-adv-x="411" d="M-22 0Q-36 0 -36 10Q-36 21 -16 24L4 27Q26 30 34 37T47 66L183 654Q188 675 183 682T158 693L138 697Q125 700 125 708Q125 720 143 720H465Q490 720 485 697L455 531Q452 514 439 514Q425 514 427 527L429
562Q434 631 407 663T338 695Q295 695 275 681T248 638L194 402Q191 388 205 388H242Q285 388 306 435L329 484Q332 490 335 493T344 497Q349 497 353 493T355 480L303 257Q298 240 287 240Q275 240 275 253V301Q275 336 266 347T234 358H198Q183 358 180 344L116
71Q111 50 116 42T141 30L194 23Q206 22 206 12Q206 0 189 0H-22Z" />
<glyph unicode="G" glyph-name="G" horiz-adv-x="514" d="M236 -9Q150 -9 101 58T52 253Q52 306 65 370T106 497T175 613T272 698T398 730Q442 730 473 723T525 703Q534 698 531 682L501 530Q498 513 485 513Q473 513 473 526L472 555Q469 641 451 672T393 704Q347
704 310 679T242 612T189 519T152 415T130 315T122 235Q122 126 154 72T239 17Q271 17 296 35T332 103L382 322Q387 342 384 350T357 361L322 365Q309 366 309 376Q309 388 327 388H508Q521 388 521 378Q521 367 506 365L491 363Q469 360 463 351T451 321L393 70Q391
59 383 49T356 28Q331 13 302 2T236 -9Z" />
<glyph unicode="H" glyph-name="H" horiz-adv-x="545" d="M-22 0Q-36 0 -36 10Q-36 21 -16 24L4 27Q26 30 34 37T47 66L183 654Q188 675 183 682T158 693L138 697Q125 700 125 708Q125 720 143 720H323Q337 720 337 709Q337 698 319 696L295 693Q273 690 265 682T252
653L194 402Q191 388 205 388H403Q417 388 420 402L478 653Q483 674 478 682T453 693L431 696Q417 697 417 708Q417 720 436 720H616Q630 720 630 710Q630 699 610 696L590 693Q568 690 560 683T547 654L411 66Q407 45 411 38T436 27L456 23Q469 20 469 12Q469
0 451 0H271Q257 0 257 11Q257 22 275 24L299 27Q321 30 329 38T342 67L406 344Q409 358 396 358H198Q183 358 180 344L116 67Q112 46 116 38T141 27L163 24Q177 23 177 12Q177 0 158 0H-22Z" />
<glyph unicode="I" glyph-name="I" horiz-adv-x="250" d="M-22 0Q-36 0 -36 10Q-36 21 -16 24L4 27Q26 30 34 37T47 66L183 654Q188 675 183 682T158 693L138 697Q125 700 125 708Q125 720 143 720H321Q335 720 335 710Q335 699 315 696L295 693Q273 690 265 683T252
654L116 66Q112 45 116 38T141 27L161 23Q174 20 174 12Q174 0 156 0H-22Z" />
<glyph unicode="J" glyph-name="J" horiz-adv-x="251" d="M-89 -215Q-117 -215 -134 -200T-152 -161Q-152 -141 -140 -125T-107 -109Q-89 -109 -82 -119T-73 -142T-66 -165T-48 -175Q-29 -175 -14 -153T11 -91L183 654Q188 675 183 682T158 693L138 697Q125 700
125 708Q125 720 143 720H321Q335 720 335 710Q335 699 315 696L295 693Q273 690 265 683T252 654L111 44Q83 -76 30 -145T-89 -215Z" />
<glyph unicode="K" glyph-name="K" horiz-adv-x="499" d="M-22 0Q-36 0 -36 10Q-36 21 -16 24L4 27Q26 30 34 37T47 66L183 654Q188 675 183 682T158 693L138 697Q125 700 125 708Q125 720 143 720H322Q337 720 337 709Q337 698 321 696L295 693Q273 691 265 683T252
653L189 381Q187 373 191 370T202 374L429 635Q472 686 436 693L417 697Q403 700 403 709Q403 720 419 720H590Q604 720 604 710Q604 698 588 697L568 695Q537 692 514 677T457 623L300 444Q288 428 293 412L400 59Q405 43 411 36T429 27L450 23Q462 20 462 12Q462
0 445 0H278Q264 0 264 10Q264 21 280 23L298 25Q337 30 325 74L244 353Q242 361 236 362T225 357L187 314Q177 303 171 291T161 264L116 67Q112 46 116 38T141 27L165 23Q176 22 176 12Q176 0 158 0H-22Z" />
<glyph unicode="L" glyph-name="L" horiz-adv-x="414" d="M-22 0Q-36 0 -36 10Q-36 21 -16 24L4 27Q26 30 34 37T47 66L183 654Q188 675 183 682T158 693L138 697Q125 700 125 708Q125 720 143 720H324Q339 720 336 708Q334 699 323 697L295 693Q273 690 265 682T252
653L122 93Q114 57 132 41T184 25Q222 25 262 54T328 145L358 215Q363 228 374 228Q389 228 384 211L328 23Q322 0 298 0H-22Z" />
<glyph unicode="M" glyph-name="M" horiz-adv-x="665" d="M259 10Q254 10 250 13T246 26L236 636Q236 643 232 643T225 637L78 86Q71 58 77 44T108 25L120 23Q132 22 132 12Q132 0 113 0H-28Q-43 0 -43 10Q-43 21 -27 23L-13 25Q14 29 27 43T47 86L198 654Q203
675 198 682T171 693L154 696Q138 699 138 709Q138 720 156 720H276Q305 720 305 690L311 193Q311 186 315 186T323 191L565 695Q577 720 603 720H724Q736 720 736 710Q736 700 719 697L695 693Q673 689 665 682T652 654L536 66Q532 45 536 38T561 27L578 24Q588
23 591 20T594 12Q594 0 576 0H398Q384 0 384 10Q384 20 400 23L424 27Q446 31 454 38T467 66L580 633Q582 640 577 641T569 637L277 26Q273 16 269 13T259 10Z" />
<glyph unicode="N" glyph-name="N" horiz-adv-x="542" d="M374 -9Q361 -9 357 7L211 603Q210 608 206 608T200 603L81 86Q74 58 80 44T111 25L123 23Q136 22 134 11Q131 0 116 0H-27Q-42 0 -39 11Q-37 22 -24 23L-10 25Q17 29 30 43T50 86L181 654Q186 675 181
682T154 693L132 697Q119 700 122 709Q124 720 139 720H236Q261 720 266 698L392 180Q394 173 398 173T404 180L509 634Q517 666 509 678T484 694L467 697Q454 700 457 709Q459 720 474 720H617Q632 720 630 709Q626 698 614 697L600 695Q573 691 561 679T540 634L397
13Q392 -9 374 -9Z" />
<glyph unicode="O" glyph-name="O" horiz-adv-x="540" d="M223 -9Q145 -9 100 55T54 243Q54 317 71 388T118 520T187 629T272 703T366 730Q444 730 489 667T535 478Q535 404 518 333T471 201T402 92T317 18T223 -9ZM221 17Q258 17 293 46T360 127T416 246T453
390T467 544Q467 704 368 704Q331 704 296 675T229 594T173 475T136 331T122 177Q122 17 221 17Z" />
<glyph unicode="P" glyph-name="P" horiz-adv-x="469" d="M-22 0Q-36 0 -36 10Q-36 21 -16 24L4 27Q26 30 34 37T47 66L183 654Q187 671 184 680T158 693L138 697Q125 700 125 708Q125 720 143 720H338Q421 720 465 675T509 562Q509 499 477 446T387 359T252 326H193Q177
326 172 309L116 70Q111 48 118 40T151 29L199 23Q208 22 208 13Q208 0 190 0H-22ZM195 406Q189 380 200 366T249 351Q299 351 334 372T392 426T425 498T436 572Q436 627 407 661T322 695Q261 695 252 655L195 406Z" />
<glyph unicode="Q" glyph-name="Q" horiz-adv-x="541" d="M270 -215Q237 -215 216 -202T179 -171T153 -133T130 -101T102 -88Q85 -88 72 -98T47 -121T22 -144T-8 -154Q-32 -154 -32 -131Q-32 -114 -13 -98T50 -70L167 -18Q177 -13 177 -8T166 1Q114 21 84 82T54
243Q54 317 71 388T118 520T187 629T272 703T366 730Q444 730 489 667T535 478Q535 401 517 327T466 189T390 79T298 9Q277 -1 260 -6T221 -23L161 -51Q152 -55 152 -61T163 -71Q190 -82 212 -99T257 -130T306 -143Q335 -143 357 -124T395 -53Q399 -40 409 -40Q422
-40 419 -58Q405 -129 365 -172T270 -215ZM221 17Q258 17 293 46T360 127T416 246T453 390T467 544Q467 704 368 704Q331 704 296 675T229 594T173 475T136 331T122 177Q122 17 221 17Z" />
<glyph unicode="R" glyph-name="R" horiz-adv-x="525" d="M402 -9Q360 -9 334 21T308 105L309 216Q310 270 303 298T277 336T221 346Q199 346 189 338T174 313L116 70Q111 49 117 41T148 29L192 23Q206 22 206 12Q206 0 190 0H-22Q-36 0 -36 10Q-36 21 -16 24L4
27Q26 30 34 37T47 66L183 654Q188 675 183 682T158 693L138 697Q125 700 125 708Q125 720 143 720H346Q405 720 444 699T502 643T522 566Q522 513 495 470T425 398T331 354Q325 353 325 349T330 341Q358 326 368 299T378 227V125Q378 70 390 50T423 29Q431 29
437 31T453 41Q461 48 467 45T474 34Q474 20 453 6T402 -9ZM256 371Q306 371 350 398T421 471T449 574Q449 630 422 662T326 695Q262 695 252 655L199 426Q186 371 256 371Z" />
<glyph unicode="S" glyph-name="S" horiz-adv-x="424" d="M173 -9Q145 -9 114 -3T55 13T11 38Q6 43 5 48T5 63L33 220Q36 238 49 238Q61 238 61 218L62 179Q64 95 91 58T179 21Q235 21 272 61T309 170Q309 214 285 262T218 358Q167 415 143 462T118 561Q118 602
138 640T198 704T302 730Q389 730 435 691Q449 680 445 658L417 512Q414 497 403 497Q392 497 390 514L389 535Q385 616 367 658T293 701Q253 701 229 683T194 639T183 586Q183 557 191 531T218 475T272 403Q320 346 347 294T374 193Q374 134 348 89T276 17T173
-9Z" />
<glyph unicode="T" glyph-name="T" horiz-adv-x="461" d="M65 0Q51 0 51 10Q51 20 67 23L109 30Q129 33 139 40T153 69L292 669Q295 683 290 689T265 695Q231 695 191 668T118 565L102 527Q97 514 85 514Q71 514 76 531L126 712Q132 735 148 735Q157 735 162 732T181
724T226 720H449Q481 720 496 724T519 731T533 735Q550 735 545 712L513 531Q510 514 496 514Q483 514 485 527L487 552Q493 626 468 660T398 695Q379 695 372 689T361 669L222 69Q217 48 223 41T249 30L296 23Q307 22 307 12Q307 0 291 0H65Z" />
<glyph unicode="U" glyph-name="U" horiz-adv-x="537" d="M225 -9Q171 -9 133 16T80 87T78 192L185 654Q190 675 185 682T160 693L140 697Q127 700 127 708Q127 720 145 720H325Q339 720 339 710Q339 699 325 697L297 693Q276 690 268 682T254 653L147 191Q129
115 157 73T246 31Q311 31 351 73T408 191L510 633Q523 689 490 693L468 696Q454 698 454 708Q454 714 460 717T473 720H617Q630 720 630 710Q630 700 614 697L590 693Q555 687 542 634L440 192Q419 101 364 46T225 -9Z" />
<glyph unicode="V" glyph-name="V" horiz-adv-x="458" d="M168 -10Q164 -10 160 -7T156 6L145 640Q144 668 138 679T113 694L100 697Q88 700 88 709Q88 720 105 720H270Q283 720 283 710Q283 699 263 697L243 695Q226 694 220 685T213 653L218 180Q218 170 224
169T234 176L453 632Q481 689 435 695L421 697Q406 700 406 709Q406 720 423 720H568Q580 720 580 710Q580 701 564 697L548 694Q528 690 514 675T486 631L187 6Q183 -4 178 -7T168 -10Z" />
<glyph unicode="W" glyph-name="W" horiz-adv-x="653" d="M372 -10Q368 -10 365 -7T361 6L356 304Q356 315 350 316T339 308L185 6Q180 -4 176 -7T168 -10Q164 -10 160 -7T156 6L145 640Q144 668 138 679T113 694L100 697Q88 700 88 709Q88 715 93 717T105 720H265Q278
720 278 710Q278 701 260 697L248 695Q231 692 222 684T212 653L218 174Q218 165 224 164T234 172L316 329Q336 368 345 403T353 483L350 640Q349 668 346 680T331 694L318 697Q305 700 305 708Q305 720 323 720H457Q470 720 470 710Q470 700 452 697L440 695Q427
693 423 684T418 653L420 518Q420 508 426 507T436 514L498 632Q518 670 518 682T509 695L499 697Q486 700 486 709Q486 720 503 720H597Q613 720 613 710Q613 699 593 697L582 696Q568 695 556 680T527 631L458 498Q438 458 429 424T421 344L423 178Q423 169 429
169T439 176L658 632Q672 661 672 676T654 695L644 697Q631 700 631 709Q631 720 648 720H761Q775 720 775 709Q775 698 755 697L744 696Q730 695 720 684T689 631L389 6Q385 -4 381 -7T372 -10Z" />
<glyph unicode="X" glyph-name="X" horiz-adv-x="545" d="M-21 0Q-30 0 -33 3T-36 11Q-36 22 -18 25L-2 28Q32 34 54 47T95 91L250 329Q258 341 262 352T262 383L204 653Q200 676 190 684T167 694L149 697Q133 700 136 710Q138 720 155 720H328Q346 720 344 710Q341
700 324 697L304 694Q286 691 278 682T274 653L322 435Q323 431 326 430T334 434L471 643Q485 665 485 675T468 690L442 696Q425 700 428 710Q430 720 448 720H603Q622 720 618 708Q616 698 600 695L584 692Q558 687 538 673T497 629L351 407Q342 394 339 381T341
344L401 67Q406 43 416 36T438 27L457 24Q470 23 470 12Q470 0 450 0H275Q260 0 260 11Q260 21 279 24L299 27Q317 30 326 39T331 67L280 301Q279 307 275 307T267 303L122 77Q108 55 108 45T125 30L152 24Q165 21 165 12Q165 0 146 0H-21Z" />
<glyph unicode="Y" glyph-name="Y" horiz-adv-x="478" d="M71 0Q57 0 57 10Q57 21 72 23L119 30Q139 33 149 40T163 69L217 305Q220 317 220 327T216 348L140 656Q136 673 130 682T107 695L99 697Q87 700 87 709Q87 720 105 720H270Q283 720 283 710Q283 698 263
697L243 695Q226 694 217 684T213 653L276 388Q278 381 283 381T294 387L471 632Q490 658 488 674T462 694L441 697Q427 699 427 709Q427 720 443 720H587Q601 720 601 711Q601 700 584 697L573 695Q559 693 545 679T507 631L315 368Q305 354 299 342T288 313L232
69Q228 48 233 41T258 30L297 23Q312 20 312 12Q312 0 294 0H71Z" />
<glyph unicode="Z" glyph-name="Z" horiz-adv-x="427" d="M-19 0Q-33 0 -36 8T-31 29L406 673Q411 681 409 685T399 690H309Q264 690 227 668T155 577L129 527Q123 514 113 514Q107 514 104 518T103 531L164 717Q168 728 172 734T186 740Q194 740 199 735T217
725T261 720H482Q496 720 500 713T495 691L58 47Q53 40 56 35T67 30H177Q221 30 258 49T324 128L365 215Q372 228 381 228Q386 228 389 224T391 211L335 23Q329 0 305 0H-19Z" />
<glyph unicode="[" glyph-name="bracketleft" horiz-adv-x="326" d="M28 -98Q5 -98 10 -74L192 716Q197 740 222 740H362Q375 740 375 729Q375 716 357 716H262Q251 716 248 704L71 -62Q68 -74 79 -74H173Q186 -74 186 -85Q186 -98 168 -98H28Z" />
<glyph unicode="\" glyph-name="backslash" horiz-adv-x="256" d="M139 -130Q130 -130 130 -121L131 779Q131 790 141 790H151Q160 790 160 781V-119Q158 -130 149 -130H139Z" />
<glyph unicode="]" glyph-name="bracketright" horiz-adv-x="326" d="M328 740Q351 740 346 716L164 -74Q159 -98 134 -98H-6Q-19 -98 -19 -87Q-19 -74 -1 -74H94Q105 -74 108 -62L285 704Q288 716 277 716H183Q170 716 170 727Q170 740 188 740H328Z" />
<glyph unicode="^" glyph-name="asciicircum" horiz-adv-x="431" d="M139 491Q129 481 121 487T123 507L290 729Q295 736 303 738T318 740H337Q345 740 351 738T359 729L425 504Q430 489 418 486T397 498L318 661L139 491Z" />
<glyph unicode="_" glyph-name="underscore" horiz-adv-x="372" d="M-58 -109Q-68 -109 -66 -99L-63 -85Q-61 -75 -50 -75H271Q280 -75 278 -85L275 -99Q273 -109 263 -109H-58Z" />
<glyph unicode="`" glyph-name="grave" horiz-adv-x="355" d="M345 584L204 661Q164 682 164 707Q164 721 175 730T202 740Q216 740 225 736T248 719L365 608Q373 600 373 593Q373 584 365 581T345 584Z" />
<glyph unicode="a" glyph-name="a" horiz-adv-x="474" d="M89 -9Q53 -9 33 22T13 113Q13 170 29 227T73 337T136 429T211 492T290 516Q309 516 326 509T354 485Q360 476 366 476Q372 476 378 485Q389 501 396 505T409 510Q422 510 419 496L330 113Q315 48 350
48Q373 48 391 79T429 175Q432 186 442 186Q449 186 451 180T451 166Q432 72 400 32T323 -9Q284 -9 268 24T264 114L277 169Q279 176 275 177T267 172Q212 71 170 31T89 -9ZM114 42Q138 42 167 71T224 146T277 245T315 347T330 430Q330 491 287 491Q261 491 232
468T177 404T129 314T94 209T81 102Q81 67 89 55T114 42Z" />
<glyph unicode="b" glyph-name="b" horiz-adv-x="431" d="M136 -9Q102 -9 76 9T39 65T41 159L153 640Q158 658 154 665T135 673L105 676Q90 677 92 689Q94 698 106 700Q142 706 170 714T215 737Q223 743 230 743Q242 743 239 728L148 335Q147 328 151 327T158
332Q213 437 256 476T338 516Q375 516 396 485T418 394Q418 337 402 280T357 170T292 78T215 15T136 -9ZM139 16Q165 16 194 39T250 102T300 191T335 293T348 395Q348 433 340 448T312 464Q290 464 262 437T205 366T151 269T111 167T96 77Q96 16 139 16Z" />
<glyph unicode="c" glyph-name="c" horiz-adv-x="351" d="M142 -9Q87 -9 51 36T15 153Q15 220 36 284T94 401T175 485T265 516Q313 516 346 490Q351 486 352 484T351 473L324 342Q321 328 311 328Q300 328 298 343L293 414Q290 460 280 474T249 488Q221 488 192
461T139 387T100 284T85 169Q85 43 167 43Q206 43 237 79T296 191Q299 201 310 201Q316 201 317 197T315 179Q305 124 279 82T218 16T142 -9Z" />
<glyph unicode="d" glyph-name="d" horiz-adv-x="474" d="M90 -9Q53 -9 33 22T13 113Q13 170 29 227T73 337T136 429T211 492T290 516Q317 516 337 502Q351 493 354 508L386 640Q391 658 387 665T368 673L338 676Q323 677 325 689Q327 698 339 700Q375 706 403
714T448 737Q456 743 463 743Q475 743 472 728L330 113Q315 48 350 48Q373 48 391 79T429 175Q432 186 442 186Q449 186 451 180T451 166Q432 72 399 32T320 -9Q281 -9 265 24T261 114L272 160Q274 167 270 168T262 163Q214 69 171 30T90 -9ZM114 42Q138 42 167
71T224 146T277 245T315 347T330 430Q330 491 287 491Q261 491 232 468T177 404T129 314T94 209T81 102Q81 67 90 55T114 42Z" />
<glyph unicode="e" glyph-name="e" horiz-adv-x="348" d="M129 -9Q76 -9 44 32T12 150Q12 216 35 281T97 399T180 484T269 516Q316 516 336 494T357 433Q357 388 326 344T238 264T105 212Q83 207 82 187Q81 180 81 173T81 158Q81 101 100 72T154 43Q192 43 227
78T287 177Q290 186 299 186Q305 186 306 181T306 169Q274 81 229 36T129 -9ZM92 250Q90 243 94 239T106 236Q168 253 210 287T273 365T295 449Q295 491 262 491Q233 491 199 457T136 368T92 250Z" />
<glyph unicode="f" glyph-name="f" horiz-adv-x="273" d="M32 0Q19 0 22 13L123 445Q132 482 99 482H78Q62 482 62 496Q62 510 80 510Q111 510 126 518T147 550Q160 607 185 651T247 722T326 748Q361 748 382 732T404 686Q404 664 393 651T364 637Q343 637 337
649T329 677T322 705T299 717Q276 717 259 695T227 610L207 523Q204 510 218 510H298Q317 510 313 496Q310 482 295 482H208Q198 482 195 472L88 11Q85 0 74 0H32Z" />
<glyph unicode="g" glyph-name="g" horiz-adv-x="401" d="M93 -216Q14 -216 -27 -187T-68 -118Q-68 -83 -41 -50T61 27Q72 33 73 40T64 55Q36 73 31 97T43 131L119 175Q129 180 129 187T119 201Q92 217 79 246T65 311Q65 365 91 411T162 487T262 516Q285 516 301
510Q313 506 319 518Q336 555 362 576T418 598Q439 598 450 587T462 557Q462 538 451 526T423 514Q410 514 404 519T392 529T376 534Q354 534 341 509Q337 500 339 493T347 477Q373 443 373 391Q373 344 353 302T297 230T215 190Q197 186 183 181T146 161L106 137Q91
128 98 115T137 89L223 57Q279 37 300 8T322 -60Q322 -108 291 -143T207 -197T93 -216ZM132 293Q132 247 145 227T184 206Q216 206 243 235T288 311T305 408Q305 458 292 476T253 495Q222 495 194 466T149 390T132 293ZM104 -191Q143 -191 177 -178T232 -141T254
-84Q254 -51 238 -30T173 10L154 17Q136 24 118 22T84 12Q30 -18 11 -44T-8 -101Q-8 -138 19 -164T104 -191Z" />
<glyph unicode="h" glyph-name="h" horiz-adv-x="476" d="M322 -9Q286 -9 268 21T266 114L343 404Q354 443 347 458T325 473Q303 473 276 446T219 371T162 264T111 139T74 11Q71 0 60 0H18Q4 0 7 13L153 640Q158 658 154 665T135 673L105 676Q90 677 92 689Q94
698 106 700Q142 706 170 714T215 737Q223 743 230 743Q242 743 239 728L141 303Q140 296 144 295T151 300Q191 382 227 429T294 496T352 516Q389 516 406 486T406 394L330 104Q323 76 329 62T351 48Q371 48 390 74T431 175Q434 186 444 186Q452 186 453 180T453
166Q434 98 412 60T368 6T322 -9Z" />
<glyph unicode="i" glyph-name="i" horiz-adv-x="288" d="M204 605Q185 605 173 618T160 651Q160 678 176 694T214 710Q234 710 247 698T261 665Q261 637 244 621T204 605ZM122 -10Q89 -10 75 14T74 95L148 412Q153 434 150 446T131 459Q113 459 92 433T43 332Q39
319 29 319Q14 319 21 337Q43 406 67 445T117 500T163 516Q198 516 212 492T213 411L139 94Q134 72 137 60T156 47Q174 47 195 73T244 174Q248 187 258 187Q273 187 266 169Q245 101 220 62T169 6T122 -10Z" />
<glyph unicode="j" glyph-name="j" horiz-adv-x="266" d="M204 605Q185 605 173 618T160 651Q160 678 176 694T214 710Q234 710 247 698T261 665Q261 637 244 621T204 605ZM-35 -215Q-70 -215 -88 -196T-107 -148Q-107 -127 -96 -117T-72 -106Q-53 -106 -47 -118T-39
-147T-34 -175T-16 -188Q-5 -188 4 -175T25 -114L148 412Q153 434 150 446T131 459Q113 459 92 433T43 332Q39 319 29 319Q14 319 21 337Q43 406 67 445T117 500T163 516Q198 516 212 492T214 411L110 -37Q91 -120 53 -167T-35 -215Z" />
<glyph unicode="k" glyph-name="k" horiz-adv-x="447" d="M318 -9Q267 -9 235 74L180 219Q170 243 155 243Q140 243 129 218Q119 196 108 159T86 77L71 11Q68 0 57 0H18Q4 0 7 13L153 640Q157 657 153 664T135 673L105 676Q90 678 92 689Q94 698 106 700Q149 707
175 716T215 737Q223 743 229 743Q242 743 239 728L146 332Q145 325 149 324T156 329L189 388Q261 516 351 516Q385 516 405 498T425 449Q425 400 378 351T253 271Q229 262 239 239L297 91Q307 66 317 56T342 45Q365 45 377 73T398 173Q400 186 410 186Q421 186
420 166Q415 82 389 37T318 -9ZM165 288Q161 279 164 275T177 272Q260 293 311 341T362 447Q362 485 333 485Q299 485 254 433T165 288Z" />
<glyph unicode="l" glyph-name="l" horiz-adv-x="240" d="M74 -10Q41 -10 27 14T26 95L153 640Q158 658 154 665T135 673L105 676Q90 677 92 689Q94 698 106 700Q142 706 170 714T215 737Q223 743 230 743Q242 743 239 728L91 94Q86 72 89 60T108 47Q126 47 147
73T196 174Q200 187 210 187Q225 187 218 169Q197 101 172 62T121 6T74 -10Z" />
<glyph unicode="m" glyph-name="m" horiz-adv-x="745" d="M591 -9Q555 -9 537 21T535 114L612 404Q623 443 616 458T594 473Q574 473 548 446T494 371T438 264T388 139T350 11Q347 0 336 0H297Q283 0 286 13L378 404Q387 443 381 458T360 473Q341 473 315 446T261
371T206 264T156 139T119 11Q116 0 105 0H64Q50 0 53 13L148 412Q153 434 150 446T131 459Q113 459 92 433T43 332Q39 319 29 319Q14 319 21 337Q43 406 67 445T117 500T163 516Q196 516 210 492T211 411L186 303Q185 296 189 295T196 300Q254 420 301 468T387
516Q424 516 439 486T441 394L420 303Q419 296 423 295T430 300Q468 381 501 428T565 496T621 516Q658 516 675 486T675 394L599 104Q592 76 598 62T620 48Q640 48 659 74T700 175Q703 186 713 186Q721 186 722 180T722 166Q703 98 681 60T637 6T591 -9Z" />
<glyph unicode="n" glyph-name="n" horiz-adv-x="521" d="M53 13L148 412Q153 434 150 446T131 459Q113 459 92 433T43 332Q39 319 29 319Q14 319 21 337Q43 406 67 445T117 500T163 516Q196 516 210 492T211 411L186 303Q185 296 189 295T196 300Q235 381 271
428T339 496T397 516Q434 516 451 486T451 394L375 104Q368 76 374 62T396 48Q416 48 435 74T476 175Q479 186 489 186Q497 186 498 180T498 166Q479 98 457 60T413 6T367 -9Q331 -9 313 21T311 114L388 404Q399 443 392 458T370 473Q348 473 320 446T263 371T206
263T156 138T119 11Q116 0 105 0H64Q50 0 53 13Z" />
<glyph unicode="o" glyph-name="o" horiz-adv-x="414" d="M154 -9Q92 -9 56 42T20 182Q20 247 41 307T96 414T173 488T259 516Q321 516 357 465T393 325Q393 260 372 200T317 93T240 19T154 -9ZM152 15Q184 15 214 46T270 128T310 241T325 367Q325 492 260 492Q229
492 198 462T143 380T103 267T88 141Q88 15 152 15Z" />
<glyph unicode="p" glyph-name="p" horiz-adv-x="450" d="M-76 -205Q-89 -205 -89 -194Q-89 -184 -73 -182L-59 -180Q-39 -177 -30 -169T-15 -138L118 436Q120 444 116 448T103 448Q93 443 84 438T66 426Q57 420 51 422T45 432Q45 439 55 446Q83 465 113 479Q130
487 134 505L147 562Q152 583 173 583H191Q203 583 209 576T212 556L205 527Q202 510 218 513Q241 516 262 516Q336 516 383 474T430 345Q430 277 405 214T339 100T249 21T151 -9Q124 -9 100 2Q85 9 82 -6L52 -138Q47 -160 52 -167T77 -177L103 -181Q121 -184 121
-193Q121 -205 104 -205H-76ZM110 115Q92 16 153 16Q188 16 224 45T291 124T341 236T360 363Q360 430 331 459T246 489Q196 489 189 455L110 115Z" />
<glyph unicode="q" glyph-name="q" horiz-adv-x="425" d="M134 -205Q121 -205 121 -194Q121 -184 137 -182L162 -180Q182 -178 191 -169T205 -138L276 168Q278 175 274 176T266 171Q232 102 202 63T144 8T90 -9Q53 -9 33 22T13 113Q13 170 29 227T73 337T136 429T211
492T290 516Q309 516 326 509T354 485Q360 476 366 476Q372 476 378 485Q389 501 396 505T409 510Q422 510 419 496L272 -138Q267 -160 272 -167T296 -178L313 -181Q331 -184 331 -193Q331 -205 314 -205H134ZM114 42Q138 42 167 71T224 146T277 245T315 347T330
430Q330 491 287 491Q261 491 232 468T177 404T129 314T94 209T81 102Q81 67 90 55T114 42Z" />
<glyph unicode="r" glyph-name="r" horiz-adv-x="368" d="M64 0Q50 0 53 13L148 412Q153 434 150 446T131 459Q113 459 92 433T43 332Q39 319 29 319Q14 319 21 337Q43 406 67 445T117 500T163 516Q196 516 210 492T211 411L200 364Q199 357 203 356T210 361Q248
448 279 482T350 516Q377 516 390 502T404 462Q404 437 392 422T361 407Q345 407 338 415T328 433T320 452T307 460Q292 460 268 422T217 320T164 175T119 11Q116 0 105 0H64Z" />
<glyph unicode="s" glyph-name="s" horiz-adv-x="302" d="M116 -9Q83 -9 47 1T-9 26Q-16 32 -15 44L7 175Q9 188 19 188Q30 188 30 174L32 126Q34 69 59 43T122 16Q154 16 177 36T200 97Q200 120 193 139T171 181T130 236Q96 280 80 311T63 377Q63 440 102 478T203
516Q230 516 255 508T298 484Q307 477 304 466L276 332Q273 319 264 319Q255 319 253 333L250 381Q246 441 235 467T187 493Q155 493 135 471T115 418Q115 385 133 358T182 288Q223 234 237 202T252 137Q252 95 234 62T184 10T116 -9Z" />
<glyph unicode="t" glyph-name="t" horiz-adv-x="272" d="M102 -9Q68 -9 49 18T43 105L126 467Q129 482 114 482H76Q62 482 62 495Q62 502 67 506T79 510H115Q138 510 142 531L166 638Q169 649 180 649H221Q235 649 232 636L207 525Q204 510 219 510H276Q293 510
293 497Q293 482 272 482H218Q196 482 191 461L107 95Q102 73 108 61T131 48Q154 48 173 74T215 173Q219 186 228 186Q235 186 237 180T234 158Q215 90 193 54T147 5T102 -9Z" />
<glyph unicode="u" glyph-name="u" horiz-adv-x="508" d="M115 -9Q78 -9 65 24T66 113L145 403Q153 432 149 448T131 464Q108 464 85 429T44 332Q41 321 31 321Q17 321 22 341Q45 425 82 470T165 516Q201 516 213 483T209 393L129 103Q110 34 142 34Q162 34 188
61T242 135T299 242T350 368T388 499Q391 510 402 510H442Q456 510 453 497L359 95Q348 48 376 48Q418 48 464 175Q468 188 478 188Q484 188 486 183T486 170Q459 85 422 38T344 -9Q272 -9 296 96L322 207Q324 214 320 215T312 210Q254 90 205 41T115 -9Z" />
<glyph unicode="v" glyph-name="v" horiz-adv-x="412" d="M151 -9Q102 -9 78 28T69 123L146 412Q159 459 130 459Q109 459 89 429T44 331Q40 319 30 319Q25 319 22 323T21 335Q79 516 166 516Q200 516 212 488T211 411L132 113Q121 71 130 49T165 26Q194 26 226
54T288 127T335 226T353 332Q353 374 344 398T326 440T316 477Q316 516 350 516Q398 516 398 410Q398 334 376 260T318 125T239 28T151 -9Z" />
<glyph unicode="w" glyph-name="w" horiz-adv-x="609" d="M137 -9Q96 -9 74 23T66 110L146 412Q159 459 130 459Q109 459 89 429T44 331Q40 319 30 319Q25 319 22 323T21 335Q79 516 166 516Q200 516 212 488T211 411L127 92Q118 58 126 42T150 26Q199 26 259
146T366 499Q369 510 380 510H419Q433 510 430 497L350 92Q343 59 351 43T379 26Q408 26 438 54T492 127T532 226T547 332Q547 374 541 398T527 440T520 477Q520 516 554 516Q578 516 585 490T592 410Q592 334 574 260T524 125T452 28T366 -9Q323 -9 300 24T290
122Q292 129 288 130T280 125Q252 69 217 30T137 -9Z" />
<glyph unicode="x" glyph-name="x" horiz-adv-x="450" d="M33 -10Q5 -10 -9 5T-24 46Q-24 69 -13 84T18 99Q34 99 41 91T53 73T62 54T78 46Q103 46 131 100T186 238Q191 252 192 263T192 288L184 412Q183 438 175 448T155 459Q133 459 113 433T80 332Q77 319 67
319Q53 319 56 337Q68 406 89 445T135 500T181 516Q212 516 229 495T250 421L253 374Q254 368 258 368T266 373Q302 452 335 484T406 516Q434 516 448 501T463 460Q463 437 452 422T421 407Q405 407 398 415T386 433T378 452T363 460Q348 460 329 438T293 378T265
296Q262 282 262 271T262 246L271 100Q273 69 282 56T306 43Q325 43 345 71T378 174Q381 187 392 187Q404 187 402 169Q393 101 374 62T331 7T287 -9Q250 -9 230 14T206 95L201 170Q200 177 196 177T189 171L171 127Q114 -10 33 -10Z" />
<glyph unicode="y" glyph-name="y" horiz-adv-x="418" d="M-27 -215Q-65 -215 -86 -196T-107 -148Q-107 -127 -96 -117T-72 -106Q-53 -106 -45 -116T-33 -139T-21 -163T7 -173Q44 -173 80 -144T139 -63T159 53L144 412Q143 438 135 448T115 459Q93 459 73 433T40
332Q37 319 27 319Q13 319 16 337Q28 406 49 445T95 500T141 516Q172 516 190 495T210 421L224 37Q224 30 228 29T237 33Q272 82 300 134T346 238T363 332Q363 374 354 398T336 440T326 477Q326 516 360 516Q408 516 408 410Q408 352 388 284T334 145T255 10T162
-105T65 -185T-27 -215Z" />
<glyph unicode="z" glyph-name="z" horiz-adv-x="385" d="M0 -9Q-13 -9 -13 6Q-13 25 3 43T46 77L291 401Q296 409 294 411T284 411Q272 406 256 406Q230 406 207 416T163 437T124 447Q95 447 81 420T67 332Q67 319 55 319Q43 319 43 337Q43 406 59 445T101 500T152
516Q181 516 200 505T234 480T266 454T310 443Q322 443 326 455Q337 478 354 497T386 516Q402 516 402 500Q402 486 392 475T363 448T321 401L94 99Q90 94 93 91T103 90Q115 95 130 95Q152 95 176 87T223 69T265 60Q294 60 308 86T322 173Q322 186 334 186Q346
186 346 168Q346 101 330 62T288 7T237 -9Q210 -9 190 1T154 25T122 48T89 58Q66 58 57 42Q47 21 31 6T0 -9Z" />
<glyph unicode="{" glyph-name="braceleft" horiz-adv-x="320" d="M160 -96Q102 -96 80 -59T74 47L106 187Q122 257 113 283T71 310Q56 310 56 321Q56 334 72 334Q107 334 130 364T169 465L201 605Q217 673 255 706T352 740Q367 740 367 729Q367 717 350 717Q319
717 297 694T259 601L227 461Q212 394 188 365T122 322Q157 306 167 274T162 175L130 35Q117 -20 125 -46T169 -72Q182 -72 182 -83Q182 -96 160 -96Z" />
<glyph unicode="|" glyph-name="bar" horiz-adv-x="252" d="M29 -130Q21 -130 23 -122L232 782Q234 790 241 790H257Q266 790 264 782L55 -122Q53 -130 45 -130H29Z" />
<glyph unicode="}" glyph-name="braceright" horiz-adv-x="320" d="M191 740Q250 740 271 703T277 597L245 457Q229 387 238 361T280 334Q295 334 295 323Q295 310 279 310Q245 310 222 280T182 179L150 39Q134 -29 96 -62T-1 -96Q-16 -96 -16 -85Q-16 -73 1 -73Q33
-73 54 -50T92 43L124 183Q139 250 163 279T229 322Q195 338 185 370T189 469L221 609Q234 665 226 690T182 716Q169 716 169 727Q169 740 191 740Z" />
<glyph unicode="~" glyph-name="asciitilde" horiz-adv-x="531" d="M380 301Q349 301 325 310T279 331T237 353T191 362Q166 362 144 350T107 311Q100 299 92 299Q87 299 84 303T84 314Q128 414 214 414Q244 414 268 405T315 384T358 362T403 353Q428 353 450
365T487 404Q495 416 502 416Q517 416 510 401Q466 301 380 301Z" />
<glyph unicode="&#xa0;" glyph-name="uni00A0" horiz-adv-x="170" />
<glyph unicode="&#xa1;" glyph-name="exclamdown" horiz-adv-x="274" d="M195 520Q216 520 229 507T242 473Q242 447 224 431T186 415Q166 415 153 428T139 462Q139 488 157 504T195 520ZM43 -215Q19 -215 9 -197T5 -152Q9 -136 20 -100T48 -15T82 91T117 205T146
315Q149 331 161 329Q173 327 170 312Q156 247 144 173T123 29T107 -93T95 -165Q90 -190 76 -202T43 -215Z" />
<glyph unicode="&#xa2;" glyph-name="cent" horiz-adv-x="351" d="M102 -109Q94 -109 96 -101L118 -6Q72 3 44 46T15 153Q15 215 33 275T84 385T155 469T237 513L259 608Q261 616 269 616H278Q287 616 284 608L263 516H265Q313 516 346 490Q351 486 352 484T351
473L324 342Q321 328 311 328Q300 328 298 343L293 414Q290 455 282 470T256 488L154 44Q160 43 167 43Q206 43 237 79T296 191Q299 201 310 201Q316 201 317 197T315 179Q305 124 279 82T218 16T142 -9L121 -101Q119 -109 111 -109H102ZM85 169Q85 76 131 51L231
485Q204 476 178 446T131 372T98 275T85 169Z" />
<glyph unicode="&#xa3;" glyph-name="sterling" horiz-adv-x="527" d="M94 -9Q57 -9 28 9T-1 68Q-1 96 16 120T62 158T124 173Q164 173 190 160T236 129Q251 156 260 184T269 239Q269 263 265 285T254 330H107Q97 330 99 340L102 354Q104 364 115 364H244Q231
404 219 447T206 542Q206 591 229 634T297 703T401 730Q420 730 446 726T498 711T540 685Q545 680 547 675T547 661L516 511Q513 496 502 496Q490 496 490 512L489 538Q487 588 479 625T449 682T386 702Q348 702 324 683T288 634T276 571Q276 509 293 461T322 364H451Q460
364 458 354L455 340Q453 330 443 330H328Q331 310 331 290Q331 253 312 202T261 104Q283 79 307 59T371 39Q397 39 415 54T434 93Q434 109 426 117T408 132T389 147T381 172Q381 191 394 202T423 214Q447 214 460 196T473 146Q473 110 458 74T413 15T340 -9Q293
-9 270 13T230 64Q200 32 166 12T94 -9ZM47 75Q47 50 61 35T100 19Q129 19 158 40T212 92Q198 114 178 130T124 146Q93 146 70 127T47 75Z" />
<glyph unicode="&#xa5;" glyph-name="yen" horiz-adv-x="514" d="M89 0Q75 0 75 10Q75 21 90 23L137 30Q157 33 167 40T181 69L230 284H70Q60 284 62 294L65 308Q67 318 77 318H237Q238 331 234 348L220 404H97Q88 404 90 414L93 428Q95 438 105 438H212L158 656Q154
673 148 682T125 695L117 697Q105 700 105 709Q105 720 123 720H288Q301 720 301 710Q301 698 281 697L261 695Q244 694 235 684T231 653L294 388Q296 381 301 381T312 387L489 632Q508 658 506 674T480 694L459 697Q445 699 445 709Q445 720 461 720H605Q619 720
619 711Q619 700 602 697L591 695Q577 693 563 679T525 631L384 438H495Q505 438 503 428L500 414Q497 404 487 404H359L333 368Q312 340 307 318H467Q477 318 475 308L472 294Q469 284 460 284H299L250 69Q246 48 251 41T276 30L315 23Q330 20 330 12Q330 0 312
0H89Z" />
<glyph unicode="&#xa7;" glyph-name="section" horiz-adv-x="379" d="M107 -122Q82 -122 51 -116T-2 -90Q-10 -82 -8 -72L15 37Q18 50 29 50Q37 50 39 45T43 32Q50 -42 68 -69T121 -97Q159 -97 176 -71T193 -14Q193 13 178 46T127 129Q92 178 74 219T56 299Q56
340 73 374T122 430T193 456Q200 457 202 461T201 470Q180 504 169 534T158 592Q158 651 199 687T304 723Q329 723 360 717T413 691Q421 683 419 673L396 564Q393 551 382 551Q374 551 372 556T368 569Q361 643 343 670T290 698Q253 698 236 672T218 615Q218 588
233 555T284 472Q319 423 337 382T355 302Q355 262 338 228T290 171T218 145Q211 144 209 140T210 131Q231 97 242 68T253 9Q253 -49 213 -85T107 -122ZM201 170Q235 170 255 186T284 225T294 273Q294 303 281 336T237 415Q228 431 210 431Q176 431 156 415T126
376T117 328Q117 298 130 265T174 186Q183 170 201 170Z" />
<glyph unicode="&#xa8;" glyph-name="dieresis" horiz-adv-x="409" d="M197 605Q177 605 165 618T153 651Q153 676 169 691T206 706Q226 706 238 693T250 660Q250 635 234 620T197 605ZM388 605Q368 605 356 618T344 651Q344 676 360 691T397 706Q417 706 429
693T441 660Q441 635 425 620T388 605Z" />
<glyph unicode="&#xa9;" glyph-name="copyright" horiz-adv-x="850" d="M449 -15Q371 -15 303 14T184 94T103 214T74 360Q74 438 103 506T183 625T303 706T449 735Q527 735 595 706T714 626T795 506T824 360Q824 282 795 214T715 95T595 14T449 -15ZM449 23Q518
23 579 49T686 122T758 230T784 360Q784 429 758 490T686 597T579 670T449 697Q380 697 319 671T212 598T140 490T114 360Q114 291 140 230T212 123T319 50T449 23ZM455 142Q396 142 351 171T282 251T257 363Q257 422 284 471T356 549T458 579Q490 579 515 574T561
560Q571 556 571 547L574 443Q574 424 561 424Q550 424 545 444L538 468Q522 522 502 541T452 560Q417 560 388 535T341 466T324 363Q324 303 343 258T391 187T453 162Q485 162 506 180T544 253L551 277Q556 297 567 297Q580 297 580 278L577 174Q577 166 567 160Q547
152 521 147T455 142Z" />
<glyph unicode="&#xaa;" glyph-name="ordfeminine" horiz-adv-x="417" d="M146 363Q118 363 102 384T85 448Q85 498 104 548T157 639T229 705T307 730Q340 730 358 709Q362 702 368 702Q373 702 377 709Q386 720 392 723T402 726Q413 726 410 716L339 448Q327
403 355 403Q374 403 386 424T414 489Q416 494 418 498T427 502Q439 502 436 485Q420 420 395 392T333 363Q302 363 289 386T286 449L297 487Q299 492 295 493T289 489Q244 419 211 391T146 363ZM166 405Q183 405 205 424T251 473T294 539T326 607T339 663Q339
706 305 706Q278 706 250 683T196 622T156 539T140 447Q140 423 146 414T166 405Z" />
<glyph unicode="&#xab;" glyph-name="guillemotleft" horiz-adv-x="417" d="M128 96L60 247Q52 264 68 280L199 412Q207 420 211 422T219 424Q227 424 228 419T226 408L123 267Q116 259 119 245L156 92Q157 88 154 84T145 79Q136 79 128 96ZM278 96L210 247Q202
264 218 280L349 412Q357 420 361 422T369 424Q377 424 378 419T376 408L273 267Q266 259 269 245L306 92Q307 88 304 84T295 79Q286 79 278 96Z" />
<glyph unicode="&#xae;" glyph-name="registered" horiz-adv-x="850" d="M449 -15Q371 -15 303 14T184 94T103 214T74 360Q74 438 103 506T183 625T303 706T449 735Q527 735 595 706T714 626T795 506T824 360Q824 282 795 214T715 95T595 14T449 -15ZM449 23Q518
23 579 49T686 122T758 230T784 360Q784 429 758 490T686 597T579 670T449 697Q380 697 319 671T212 598T140 490T114 360Q114 291 140 230T212 123T319 50T449 23ZM588 144Q551 144 531 161T502 212L485 278Q473 325 460 340T419 355Q398 355 398 340V197Q398
184 402 180T418 173L439 170Q447 169 449 166T452 159Q452 149 441 149H300Q290 149 290 159Q290 168 299 169L314 171Q329 173 334 177T339 194V532Q339 545 334 549T314 556L302 558Q290 559 290 568Q290 578 303 578H448Q510 578 549 548T588 471Q588 433 561
403T489 360Q478 357 489 352Q511 344 523 328T542 284L558 224Q566 193 576 182T602 171Q611 171 624 179Q630 183 634 181T639 172Q639 159 624 152T588 144ZM444 374Q476 374 501 398T527 463Q527 507 502 531T442 556Q398 556 398 533V407Q398 374 444 374Z"
/>
<glyph unicode="&#xaf;" glyph-name="overscore" horiz-adv-x="411" d="M161 636Q149 636 151 648L154 663Q156 675 169 675H436Q447 675 445 663L442 648Q440 636 427 636H161Z" />
<glyph unicode="&#xb0;" glyph-name="degree" horiz-adv-x="434" d="M296 449Q256 449 223 468T171 521T152 593Q152 632 171 664T223 716T296 735Q337 735 369 716T419 665T438 593Q438 554 420 521T369 469T296 449ZM296 480Q343 480 374 513T406 593Q406 639
375 671T296 704Q248 704 216 672T184 593Q184 546 216 513T296 480Z" />
<glyph unicode="&#xb4;" glyph-name="acute" horiz-adv-x="353" d="M162 585Q144 578 139 591Q135 601 152 613L309 720Q337 740 357 740Q377 740 386 730T396 706Q396 691 386 680T345 657L162 585Z" />
<glyph unicode="&#xb6;" glyph-name="paragraph" horiz-adv-x="523" d="M179 -130Q164 -130 167 -115L265 312Q268 326 254 326H242Q171 326 128 371T85 490Q85 551 117 603T210 687T356 720H595Q608 720 608 711Q608 700 592 697L568 693Q546 689 538 682T525
654L347 -118Q344 -130 331 -130H305Q290 -130 293 -115L473 666Q475 676 471 683T454 690H431Q407 690 402 666L221 -118Q218 -130 205 -130H179Z" />
<glyph unicode="&#xb7;" glyph-name="middot" horiz-adv-x="103" d="M36 320Q15 320 2 333T-11 367Q-11 393 7 409T45 425Q65 425 78 412T92 378Q92 352 74 336T36 320Z" />
<glyph unicode="&#xb8;" glyph-name="cedilla" horiz-adv-x="304" d="M116 13L92 -43Q89 -49 95 -51Q123 -60 138 -78T154 -123Q154 -166 120 -190T42 -215Q7 -215 -14 -200T-35 -161Q-35 -148 -28 -140T-7 -131Q8 -131 11 -140T16 -163T24 -185T49 -195Q78 -195
92 -175T107 -133Q107 -93 63 -84Q53 -82 57 -71L92 13H116Z" />
<glyph unicode="&#xba;" glyph-name="ordmasculine" horiz-adv-x="367" d="M208 363Q159 363 131 399T102 495Q102 540 118 582T161 657T223 710T295 730Q343 730 371 695T400 599Q400 554 384 512T341 436T279 383T208 363ZM208 387Q234 387 258 407T303 460T334
534T346 619Q346 706 294 706Q268 706 244 687T199 634T168 559T156 475Q156 387 208 387Z" />
<glyph unicode="&#xbb;" glyph-name="guillemotright" horiz-adv-x="416" d="M287 407L355 256Q363 239 347 223L216 91Q208 83 204 81T196 79Q189 79 188 85T189 95L292 236Q299 244 296 258L259 411Q258 416 261 420T270 424Q279 424 287 407ZM137 407L205 256Q213
239 197 223L66 91Q58 83 54 81T46 79Q39 79 38 85T39 95L142 236Q149 244 146 258L109 411Q108 416 111 420T120 424Q129 424 137 407Z" />
<glyph unicode="&#xbf;" glyph-name="questiondown" horiz-adv-x="358" d="M260 520Q281 520 294 507T307 473Q307 447 289 431T251 415Q231 415 218 428T204 462Q204 488 222 504T260 520ZM119 -210Q84 -210 52 -198T-1 -158T-22 -89Q-22 -18 14 36T115 136L164
171Q175 179 180 189T189 216L216 311Q220 325 231 325Q236 325 239 321T240 307L213 171Q208 144 200 127T170 95L140 73Q88 35 59 -9T30 -115Q30 -144 45 -160T83 -176Q122 -176 151 -148T219 -49Q226 -36 235 -37Q246 -39 241 -56L211 -175Q207 -188 195 -195Q182
-203 162 -206T119 -210Z" />
<glyph unicode="&#xc0;" glyph-name="Agrave" horiz-adv-x="457" d="M-62 0Q-74 0 -74 10Q-74 19 -58 23L-42 26Q-22 30 -8 45T20 89L319 714Q324 724 329 727T338 730Q343 730 346 727T350 714L361 80Q362 52 368 42T393 26L406 23Q418 20 418 11Q418 0 401 0H236Q223
0 223 10Q223 21 243 23L263 25Q280 27 286 36T293 67L291 222Q291 248 264 248H157Q131 248 118 222L53 88Q26 31 71 25L85 23Q100 21 100 11Q100 0 83 0H-62ZM161 278H273Q290 278 290 295L288 568H283L152 295Q148 288 151 283T161 278ZM426 794L285 871Q245
892 245 917Q245 931 256 940T283 950Q297 950 306 946T329 929L446 818Q454 810 454 803Q454 794 446 791T426 794Z" />
<glyph unicode="&#xc1;" glyph-name="Aacute" horiz-adv-x="457" d="M-62 0Q-74 0 -74 10Q-74 19 -58 23L-42 26Q-22 30 -8 45T20 89L319 714Q324 724 329 727T338 730Q343 730 346 727T350 714L361 80Q362 52 368 42T393 26L406 23Q418 20 418 11Q418 0 401 0H236Q223
0 223 10Q223 21 243 23L263 25Q280 27 286 36T293 67L291 222Q291 248 264 248H157Q131 248 118 222L53 88Q26 31 71 25L85 23Q100 21 100 11Q100 0 83 0H-62ZM161 278H273Q290 278 290 295L288 568H283L152 295Q148 288 151 283T161 278ZM279 795Q261 788 256
801Q252 811 269 823L426 930Q454 950 474 950Q494 950 503 940T513 916Q513 901 503 890T462 867L279 795Z" />
<glyph unicode="&#xc2;" glyph-name="Acircumflex" horiz-adv-x="457" d="M-62 0Q-74 0 -74 10Q-74 19 -58 23L-42 26Q-22 30 -8 45T20 89L319 714Q324 724 329 727T338 730Q343 730 346 727T350 714L361 80Q362 52 368 42T393 26L406 23Q418 20 418 11Q418 0
401 0H236Q223 0 223 10Q223 21 243 23L263 25Q280 27 286 36T293 67L291 222Q291 248 264 248H157Q131 248 118 222L53 88Q26 31 71 25L85 23Q100 21 100 11Q100 0 83 0H-62ZM161 278H273Q290 278 290 295L288 568H283L152 295Q148 288 151 283T161 278ZM226 796Q210
786 202 796Q194 806 207 817L351 939Q365 950 379 950H398Q412 950 420 939L508 817Q514 808 509 801Q502 792 488 802L381 885L226 796Z" />
<glyph unicode="&#xc3;" glyph-name="Atilde" horiz-adv-x="457" d="M-62 0Q-74 0 -74 10Q-74 19 -58 23L-42 26Q-22 30 -8 45T20 89L319 714Q324 724 329 727T338 730Q343 730 346 727T350 714L361 80Q362 52 368 42T393 26L406 23Q418 20 418 11Q418 0 401 0H236Q223
0 223 10Q223 21 243 23L263 25Q280 27 286 36T293 67L291 222Q291 248 264 248H157Q131 248 118 222L53 88Q26 31 71 25L85 23Q100 21 100 11Q100 0 83 0H-62ZM161 278H273Q290 278 290 295L288 568H283L152 295Q148 288 151 283T161 278ZM429 807Q407 807 391
817T362 839T333 862T297 872Q270 872 253 860T221 821Q215 809 205 809Q200 809 197 813T197 824Q218 875 244 901T311 928Q334 928 350 918T380 896T408 873T443 863Q470 863 487 875T518 914Q524 926 534 926Q540 926 543 922T543 911Q521 860 495 834T429 807Z"
/>
<glyph unicode="&#xc4;" glyph-name="Adieresis" horiz-adv-x="457" d="M-62 0Q-74 0 -74 10Q-74 19 -58 23L-42 26Q-22 30 -8 45T20 89L319 714Q324 724 329 727T338 730Q343 730 346 727T350 714L361 80Q362 52 368 42T393 26L406 23Q418 20 418 11Q418 0 401
0H236Q223 0 223 10Q223 21 243 23L263 25Q280 27 286 36T293 67L291 222Q291 248 264 248H157Q131 248 118 222L53 88Q26 31 71 25L85 23Q100 21 100 11Q100 0 83 0H-62ZM161 278H273Q290 278 290 295L288 568H283L152 295Q148 288 151 283T161 278ZM270 815Q250
815 238 828T226 861Q226 886 242 901T279 916Q299 916 311 903T323 870Q323 845 307 830T270 815ZM461 815Q441 815 429 828T417 861Q417 886 433 901T470 916Q490 916 502 903T514 870Q514 845 498 830T461 815Z" />
<glyph unicode="&#xc5;" glyph-name="Aring" horiz-adv-x="457" d="M-62 0Q-74 0 -74 10Q-74 19 -58 23L-42 26Q-22 30 -8 45T20 89L319 714Q324 724 329 727T338 730Q343 730 346 727T350 714L361 80Q362 52 368 42T393 26L406 23Q418 20 418 11Q418 0 401 0H236Q223
0 223 10Q223 21 243 23L263 25Q280 27 286 36T293 67L291 222Q291 248 264 248H157Q131 248 118 222L53 88Q26 31 71 25L85 23Q100 21 100 11Q100 0 83 0H-62ZM161 278H273Q290 278 290 295L288 568H283L152 295Q148 288 151 283T161 278ZM365 771Q318 771 291
800T264 869Q264 902 280 928T323 970T381 986Q428 986 454 957T481 888Q481 856 465 829T422 787T365 771ZM367 798Q401 798 425 824T450 888Q450 918 431 938T379 959Q344 959 320 933T295 869Q295 839 314 819T367 798Z" />
<glyph unicode="&#xc6;" glyph-name="AE" horiz-adv-x="783" d="M-61 0Q-74 0 -74 10Q-74 16 -69 19T-57 23L-41 26Q-21 30 0 46T41 89L453 654Q468 675 463 681T438 692L416 697Q406 700 406 708Q406 720 423 720H806Q831 720 826 697L796 531Q793 514 780 514Q768
514 768 527L770 564Q774 632 748 663T661 695Q621 695 603 684T578 643L523 402Q520 388 534 388H584Q628 388 648 435L670 485Q677 498 686 498Q691 498 695 494T697 481L645 256Q641 241 630 239Q616 237 616 252L617 301Q618 336 609 347T576 358H527Q512 358
509 344L451 93Q443 57 458 41T522 25Q572 25 613 50T685 146L710 205Q715 218 726 218Q741 218 736 201L685 23Q679 0 655 0H305Q291 0 291 10Q291 19 307 23L331 27Q353 31 361 38T374 66L438 344Q441 358 428 358H285Q273 358 266 348L76 88Q35 31 81 25L96
23Q111 22 111 11Q111 0 92 0H-61ZM308 405Q303 398 305 393T314 388H435Q449 388 452 402L512 664Q514 673 510 674T499 667L308 405Z" />
<glyph unicode="&#xc7;" glyph-name="Ccedilla" horiz-adv-x="475" d="M256 -9Q150 -9 103 58T55 252Q55 313 70 379T113 507T182 620T272 700T382 730Q452 730 509 683Q519 675 516 661L486 510Q483 494 471 494Q459 494 459 510L458 549Q456 632 434 667T371
702Q332 702 296 671T229 587T175 471T138 343T125 224Q125 134 152 77T244 20Q282 20 311 47T372 142L394 189Q399 201 409 201Q425 201 420 182L380 26Q376 11 364 8Q347 2 315 -3T256 -9ZM252 13L228 -43Q225 -49 231 -51Q259 -60 274 -78T290 -123Q290 -166
256 -190T178 -215Q143 -215 122 -200T101 -161Q101 -148 108 -140T129 -131Q144 -131 147 -140T152 -163T160 -185T185 -195Q214 -195 228 -175T243 -133Q243 -93 199 -84Q189 -82 193 -71L228 13H252Z" />
<glyph unicode="&#xc8;" glyph-name="Egrave" horiz-adv-x="454" d="M-22 0Q-36 0 -36 10Q-36 21 -16 24L4 27Q26 30 34 37T47 66L183 654Q188 675 183 682T158 693L138 697Q125 700 125 708Q125 720 143 720H477Q503 720 498 697L467 531Q464 514 451 514Q437
514 439 527L442 562Q447 613 434 642T394 683T332 695Q292 695 274 684T249 643L194 402Q191 388 205 388H256Q300 388 320 435L342 485Q347 498 358 498Q364 498 367 494T369 481L317 256Q312 239 300 239Q288 239 288 252L289 301Q290 336 281 347T248 358H198Q183
358 180 344L122 93Q114 57 129 41T193 25Q223 25 252 34T308 71T357 149L381 205Q386 218 397 218Q412 218 407 201L356 23Q350 0 326 0H-22ZM424 794L283 871Q243 892 243 917Q243 931 254 940T281 950Q295 950 304 946T327 929L444 818Q452 810 452 803Q452
794 444 791T424 794Z" />
<glyph unicode="&#xc9;" glyph-name="Eacute" horiz-adv-x="454" d="M-22 0Q-36 0 -36 10Q-36 21 -16 24L4 27Q26 30 34 37T47 66L183 654Q188 675 183 682T158 693L138 697Q125 700 125 708Q125 720 143 720H477Q503 720 498 697L467 531Q464 514 451 514Q437
514 439 527L442 562Q447 613 434 642T394 683T332 695Q292 695 274 684T249 643L194 402Q191 388 205 388H256Q300 388 320 435L342 485Q347 498 358 498Q364 498 367 494T369 481L317 256Q312 239 300 239Q288 239 288 252L289 301Q290 336 281 347T248 358H198Q183
358 180 344L122 93Q114 57 129 41T193 25Q223 25 252 34T308 71T357 149L381 205Q386 218 397 218Q412 218 407 201L356 23Q350 0 326 0H-22ZM277 795Q259 788 254 801Q250 811 267 823L424 930Q452 950 472 950Q492 950 501 940T511 916Q511 901 501 890T460
867L277 795Z" />
<glyph unicode="&#xca;" glyph-name="Ecircumflex" horiz-adv-x="454" d="M-22 0Q-36 0 -36 10Q-36 21 -16 24L4 27Q26 30 34 37T47 66L183 654Q188 675 183 682T158 693L138 697Q125 700 125 708Q125 720 143 720H477Q503 720 498 697L467 531Q464 514 451 514Q437
514 439 527L442 562Q447 613 434 642T394 683T332 695Q292 695 274 684T249 643L194 402Q191 388 205 388H256Q300 388 320 435L342 485Q347 498 358 498Q364 498 367 494T369 481L317 256Q312 239 300 239Q288 239 288 252L289 301Q290 336 281 347T248 358H198Q183
358 180 344L122 93Q114 57 129 41T193 25Q223 25 252 34T308 71T357 149L381 205Q386 218 397 218Q412 218 407 201L356 23Q350 0 326 0H-22ZM224 796Q208 786 200 796Q192 806 205 817L349 939Q363 950 377 950H396Q410 950 418 939L506 817Q512 808 507 801Q500
792 486 802L379 885L224 796Z" />
<glyph unicode="&#xcb;" glyph-name="Edieresis" horiz-adv-x="454" d="M-22 0Q-36 0 -36 10Q-36 21 -16 24L4 27Q26 30 34 37T47 66L183 654Q188 675 183 682T158 693L138 697Q125 700 125 708Q125 720 143 720H477Q503 720 498 697L467 531Q464 514 451 514Q437
514 439 527L442 562Q447 613 434 642T394 683T332 695Q292 695 274 684T249 643L194 402Q191 388 205 388H256Q300 388 320 435L342 485Q347 498 358 498Q364 498 367 494T369 481L317 256Q312 239 300 239Q288 239 288 252L289 301Q290 336 281 347T248 358H198Q183
358 180 344L122 93Q114 57 129 41T193 25Q223 25 252 34T308 71T357 149L381 205Q386 218 397 218Q412 218 407 201L356 23Q350 0 326 0H-22ZM268 815Q248 815 236 828T224 861Q224 886 240 901T277 916Q297 916 309 903T321 870Q321 845 305 830T268 815ZM459
815Q439 815 427 828T415 861Q415 886 431 901T468 916Q488 916 500 903T512 870Q512 845 496 830T459 815Z" />
<glyph unicode="&#xcc;" glyph-name="Igrave" horiz-adv-x="250" d="M-22 0Q-36 0 -36 10Q-36 21 -16 24L4 27Q26 30 34 37T47 66L183 654Q188 675 183 682T158 693L138 697Q125 700 125 708Q125 720 143 720H321Q335 720 335 710Q335 699 315 696L295 693Q273
690 265 683T252 654L116 66Q112 45 116 38T141 27L161 23Q174 20 174 12Q174 0 156 0H-22ZM322 794L181 871Q141 892 141 917Q141 931 152 940T179 950Q193 950 202 946T225 929L342 818Q350 810 350 803Q350 794 342 791T322 794Z" />
<glyph unicode="&#xcd;" glyph-name="Iacute" horiz-adv-x="250" d="M-22 0Q-36 0 -36 10Q-36 21 -16 24L4 27Q26 30 34 37T47 66L183 654Q188 675 183 682T158 693L138 697Q125 700 125 708Q125 720 143 720H321Q335 720 335 710Q335 699 315 696L295 693Q273
690 265 683T252 654L116 66Q112 45 116 38T141 27L161 23Q174 20 174 12Q174 0 156 0H-22ZM175 795Q157 788 152 801Q148 811 165 823L322 930Q350 950 370 950Q390 950 399 940T409 916Q409 901 399 890T358 867L175 795Z" />
<glyph unicode="&#xce;" glyph-name="Icircumflex" horiz-adv-x="250" d="M-22 0Q-36 0 -36 10Q-36 21 -16 24L4 27Q26 30 34 37T47 66L183 654Q188 675 183 682T158 693L138 697Q125 700 125 708Q125 720 143 720H321Q335 720 335 710Q335 699 315 696L295 693Q273
690 265 683T252 654L116 66Q112 45 116 38T141 27L161 23Q174 20 174 12Q174 0 156 0H-22ZM122 796Q106 786 98 796Q90 806 103 817L247 939Q261 950 275 950H294Q308 950 316 939L404 817Q410 808 405 801Q398 792 384 802L277 885L122 796Z" />
<glyph unicode="&#xcf;" glyph-name="Idieresis" horiz-adv-x="250" d="M-22 0Q-36 0 -36 10Q-36 21 -16 24L4 27Q26 30 34 37T47 66L183 654Q188 675 183 682T158 693L138 697Q125 700 125 708Q125 720 143 720H321Q335 720 335 710Q335 699 315 696L295 693Q273
690 265 683T252 654L116 66Q112 45 116 38T141 27L161 23Q174 20 174 12Q174 0 156 0H-22ZM166 815Q146 815 134 828T122 861Q122 886 138 901T175 916Q195 916 207 903T219 870Q219 845 203 830T166 815ZM357 815Q337 815 325 828T313 861Q313 886 329 901T366
916Q386 916 398 903T410 870Q410 845 394 830T357 815Z" />
<glyph unicode="&#xd0;" glyph-name="Eth" horiz-adv-x="536" d="M-22 0Q-36 0 -36 10Q-36 21 -16 24L4 27Q26 30 34 37T47 66L115 358H54Q44 358 46 368L48 376Q50 386 60 386H121L183 654Q188 675 183 682T158 693L138 697Q125 700 125 708Q125 720 143 720H344Q430
720 480 657T531 468Q531 376 502 292T424 142T313 38T182 0H-22ZM187 26Q244 26 294 68T382 182T441 346T463 534Q463 614 430 654T338 694Q263 694 246 621L192 386H315Q325 386 323 376L321 368Q319 358 309 358H186L126 99Q117 59 133 43T187 26Z" />
<glyph unicode="&#xd1;" glyph-name="Ntilde" horiz-adv-x="542" d="M374 -9Q361 -9 357 7L211 603Q210 608 206 608T200 603L81 86Q74 58 80 44T111 25L123 23Q136 22 134 11Q131 0 116 0H-27Q-42 0 -39 11Q-37 22 -24 23L-10 25Q17 29 30 43T50 86L181 654Q186
675 181 682T154 693L132 697Q119 700 122 709Q124 720 139 720H236Q261 720 266 698L392 180Q394 173 398 173T404 180L509 634Q517 666 509 678T484 694L467 697Q454 700 457 709Q459 720 474 720H617Q632 720 630 709Q626 698 614 697L600 695Q573 691 561 679T540
634L397 13Q392 -9 374 -9ZM471 807Q449 807 433 817T404 839T375 862T339 872Q312 872 295 860T263 821Q257 809 247 809Q242 809 239 813T239 824Q260 875 286 901T353 928Q376 928 392 918T422 896T450 873T485 863Q512 863 529 875T560 914Q566 926 576 926Q582
926 585 922T585 911Q563 860 537 834T471 807Z" />
<glyph unicode="&#xd2;" glyph-name="Ograve" horiz-adv-x="540" d="M223 -9Q145 -9 100 55T54 243Q54 317 71 388T118 520T187 629T272 703T366 730Q444 730 489 667T535 478Q535 404 518 333T471 201T402 92T317 18T223 -9ZM221 17Q258 17 293 46T360 127T416
246T453 390T467 544Q467 704 368 704Q331 704 296 675T229 594T173 475T136 331T122 177Q122 17 221 17ZM467 794L326 871Q286 892 286 917Q286 931 297 940T324 950Q338 950 347 946T370 929L487 818Q495 810 495 803Q495 794 487 791T467 794Z" />
<glyph unicode="&#xd3;" glyph-name="Oacute" horiz-adv-x="540" d="M223 -9Q145 -9 100 55T54 243Q54 317 71 388T118 520T187 629T272 703T366 730Q444 730 489 667T535 478Q535 404 518 333T471 201T402 92T317 18T223 -9ZM221 17Q258 17 293 46T360 127T416
246T453 390T467 544Q467 704 368 704Q331 704 296 675T229 594T173 475T136 331T122 177Q122 17 221 17ZM320 795Q302 788 297 801Q293 811 310 823L467 930Q495 950 515 950Q535 950 544 940T554 916Q554 901 544 890T503 867L320 795Z" />
<glyph unicode="&#xd4;" glyph-name="Ocircumflex" horiz-adv-x="540" d="M223 -9Q145 -9 100 55T54 243Q54 317 71 388T118 520T187 629T272 703T366 730Q444 730 489 667T535 478Q535 404 518 333T471 201T402 92T317 18T223 -9ZM221 17Q258 17 293 46T360 127T416
246T453 390T467 544Q467 704 368 704Q331 704 296 675T229 594T173 475T136 331T122 177Q122 17 221 17ZM267 796Q251 786 243 796Q235 806 248 817L392 939Q406 950 420 950H439Q453 950 461 939L549 817Q555 808 550 801Q543 792 529 802L422 885L267 796Z"
/>
<glyph unicode="&#xd5;" glyph-name="Otilde" horiz-adv-x="540" d="M223 -9Q145 -9 100 55T54 243Q54 317 71 388T118 520T187 629T272 703T366 730Q444 730 489 667T535 478Q535 404 518 333T471 201T402 92T317 18T223 -9ZM221 17Q258 17 293 46T360 127T416
246T453 390T467 544Q467 704 368 704Q331 704 296 675T229 594T173 475T136 331T122 177Q122 17 221 17ZM470 807Q448 807 432 817T403 839T374 862T338 872Q311 872 294 860T262 821Q256 809 246 809Q241 809 238 813T238 824Q259 875 285 901T352 928Q375 928
391 918T421 896T449 873T484 863Q511 863 528 875T559 914Q565 926 575 926Q581 926 584 922T584 911Q562 860 536 834T470 807Z" />
<glyph unicode="&#xd6;" glyph-name="Odieresis" horiz-adv-x="540" d="M223 -9Q145 -9 100 55T54 243Q54 317 71 388T118 520T187 629T272 703T366 730Q444 730 489 667T535 478Q535 404 518 333T471 201T402 92T317 18T223 -9ZM221 17Q258 17 293 46T360 127T416
246T453 390T467 544Q467 704 368 704Q331 704 296 675T229 594T173 475T136 331T122 177Q122 17 221 17ZM311 815Q291 815 279 828T267 861Q267 886 283 901T320 916Q340 916 352 903T364 870Q364 845 348 830T311 815ZM502 815Q482 815 470 828T458 861Q458 886
474 901T511 916Q531 916 543 903T555 870Q555 845 539 830T502 815Z" />
<glyph unicode="&#xd7;" glyph-name="multiply" horiz-adv-x="531" d="M94 194L82 207Q76 213 85 221L272 374L156 525Q151 532 159 539L171 548Q180 554 185 548L300 397L488 551Q496 558 502 551L513 538Q519 532 510 524L322 370L438 218Q443 211 435 204L424
195Q415 188 410 195L294 346L108 194Q100 188 94 194Z" />
<glyph unicode="&#xd8;" glyph-name="Oslash" horiz-adv-x="540" d="M38 -60Q25 -60 32 -48L97 59Q76 91 65 137T54 243Q54 317 71 388T118 520T187 629T272 703T366 730Q432 730 474 686L526 772Q530 780 538 780H551Q564 780 557 768L493 661Q513 630 524 584T535
478Q535 404 518 333T471 201T402 92T317 18T223 -9Q157 -9 115 35L63 -52Q59 -60 51 -60H38ZM122 177Q122 139 128 111L451 647Q427 704 368 704Q331 704 296 675T229 594T173 475T136 331T122 177ZM221 17Q258 17 293 46T360 127T416 246T453 390T467 544Q467
581 462 610L139 73Q163 17 221 17Z" />
<glyph unicode="&#xd9;" glyph-name="Ugrave" horiz-adv-x="537" d="M225 -9Q171 -9 133 16T80 87T78 192L185 654Q190 675 185 682T160 693L140 697Q127 700 127 708Q127 720 145 720H325Q339 720 339 710Q339 699 325 697L297 693Q276 690 268 682T254 653L147
191Q129 115 157 73T246 31Q311 31 351 73T408 191L510 633Q523 689 490 693L468 696Q454 698 454 708Q454 714 460 717T473 720H617Q630 720 630 710Q630 700 614 697L590 693Q555 687 542 634L440 192Q419 101 364 46T225 -9ZM486 794L345 871Q305 892 305 917Q305
931 316 940T343 950Q357 950 366 946T389 929L506 818Q514 810 514 803Q514 794 506 791T486 794Z" />
<glyph unicode="&#xda;" glyph-name="Uacute" horiz-adv-x="537" d="M225 -9Q171 -9 133 16T80 87T78 192L185 654Q190 675 185 682T160 693L140 697Q127 700 127 708Q127 720 145 720H325Q339 720 339 710Q339 699 325 697L297 693Q276 690 268 682T254 653L147
191Q129 115 157 73T246 31Q311 31 351 73T408 191L510 633Q523 689 490 693L468 696Q454 698 454 708Q454 714 460 717T473 720H617Q630 720 630 710Q630 700 614 697L590 693Q555 687 542 634L440 192Q419 101 364 46T225 -9ZM339 795Q321 788 316 801Q312 811
329 823L486 930Q514 950 534 950Q554 950 563 940T573 916Q573 901 563 890T522 867L339 795Z" />
<glyph unicode="&#xdb;" glyph-name="Ucircumflex" horiz-adv-x="537" d="M225 -9Q171 -9 133 16T80 87T78 192L185 654Q190 675 185 682T160 693L140 697Q127 700 127 708Q127 720 145 720H325Q339 720 339 710Q339 699 325 697L297 693Q276 690 268 682T254
653L147 191Q129 115 157 73T246 31Q311 31 351 73T408 191L510 633Q523 689 490 693L468 696Q454 698 454 708Q454 714 460 717T473 720H617Q630 720 630 710Q630 700 614 697L590 693Q555 687 542 634L440 192Q419 101 364 46T225 -9ZM286 796Q270 786 262 796Q254
806 267 817L411 939Q425 950 439 950H458Q472 950 480 939L568 817Q574 808 569 801Q562 792 548 802L441 885L286 796Z" />
<glyph unicode="&#xdc;" glyph-name="Udieresis" horiz-adv-x="537" d="M225 -9Q171 -9 133 16T80 87T78 192L185 654Q190 675 185 682T160 693L140 697Q127 700 127 708Q127 720 145 720H325Q339 720 339 710Q339 699 325 697L297 693Q276 690 268 682T254 653L147
191Q129 115 157 73T246 31Q311 31 351 73T408 191L510 633Q523 689 490 693L468 696Q454 698 454 708Q454 714 460 717T473 720H617Q630 720 630 710Q630 700 614 697L590 693Q555 687 542 634L440 192Q419 101 364 46T225 -9ZM330 815Q310 815 298 828T286 861Q286
886 302 901T339 916Q359 916 371 903T383 870Q383 845 367 830T330 815ZM521 815Q501 815 489 828T477 861Q477 886 493 901T530 916Q550 916 562 903T574 870Q574 845 558 830T521 815Z" />
<glyph unicode="&#xdd;" glyph-name="Yacute" horiz-adv-x="478" d="M71 0Q57 0 57 10Q57 21 72 23L119 30Q139 33 149 40T163 69L217 305Q220 317 220 327T216 348L140 656Q136 673 130 682T107 695L99 697Q87 700 87 709Q87 720 105 720H270Q283 720 283 710Q283
698 263 697L243 695Q226 694 217 684T213 653L276 388Q278 381 283 381T294 387L471 632Q490 658 488 674T462 694L441 697Q427 699 427 709Q427 720 443 720H587Q601 720 601 711Q601 700 584 697L573 695Q559 693 545 679T507 631L315 368Q305 354 299 342T288
313L232 69Q228 48 233 41T258 30L297 23Q312 20 312 12Q312 0 294 0H71ZM299 795Q281 788 276 801Q272 811 289 823L446 930Q474 950 494 950Q514 950 523 940T533 916Q533 901 523 890T482 867L299 795Z" />
<glyph unicode="&#xde;" glyph-name="Thorn" horiz-adv-x="469" d="M-22 0Q-36 0 -36 10Q-36 21 -16 24L4 27Q26 30 34 37T47 66L183 654Q188 675 183 682T158 693L138 697Q125 700 125 708Q125 720 143 720H345Q359 720 359 710Q359 699 339 696L295 690Q273
687 265 679T252 654L238 594Q235 579 251 579H306Q389 579 433 534T477 421Q477 358 445 305T355 218T220 185H161Q145 185 140 168L116 66Q112 49 116 42T141 31L185 23Q198 20 198 12Q198 0 180 0H-22ZM217 210Q267 210 302 231T360 285T393 357T404 431Q404
486 375 520T290 554Q229 554 220 514L163 265Q157 239 168 225T217 210Z" />
<glyph unicode="&#xdf;" glyph-name="germandbls" horiz-adv-x="426" d="M253 -9Q230 -9 200 -1T148 24Q140 31 143 42L165 154Q168 169 180 169Q192 169 192 151Q193 78 206 48T259 17Q297 17 317 41T338 113Q338 151 324 174T282 226Q215 292 215 351Q215 393
235 422T284 475T342 521T391 573T411 642Q411 709 348 709Q305 709 271 678T220 578L92 20Q87 0 67 0H-38Q-53 0 -50 11Q-48 22 -35 23L-9 25Q12 27 20 36T34 67L123 449Q131 482 104 486L83 490Q73 492 73 499Q73 510 91 510Q113 510 129 521T152 561Q165 611
191 651T258 716T353 740Q407 740 439 713T472 642Q472 607 451 581T400 533T339 489T287 442T266 384Q266 363 278 339T329 276Q363 242 379 210T395 139Q395 107 380 73T333 15T253 -9Z" />
<glyph unicode="&#xe0;" glyph-name="agrave" horiz-adv-x="474" d="M89 -9Q53 -9 33 22T13 113Q13 170 29 227T73 337T136 429T211 492T290 516Q309 516 326 509T354 485Q360 476 366 476Q372 476 378 485Q389 501 396 505T409 510Q422 510 419 496L330 113Q315
48 350 48Q373 48 391 79T429 175Q432 186 442 186Q449 186 451 180T451 166Q432 72 400 32T323 -9Q284 -9 268 24T264 114L277 169Q279 176 275 177T267 172Q212 71 170 31T89 -9ZM114 42Q138 42 167 71T224 146T277 245T315 347T330 430Q330 491 287 491Q261
491 232 468T177 404T129 314T94 209T81 102Q81 67 89 55T114 42ZM386 584L245 661Q205 682 205 707Q205 721 216 730T243 740Q257 740 266 736T289 719L406 608Q414 600 414 593Q414 584 406 581T386 584Z" />
<glyph unicode="&#xe1;" glyph-name="aacute" horiz-adv-x="474" d="M89 -9Q53 -9 33 22T13 113Q13 170 29 227T73 337T136 429T211 492T290 516Q309 516 326 509T354 485Q360 476 366 476Q372 476 378 485Q389 501 396 505T409 510Q422 510 419 496L330 113Q315
48 350 48Q373 48 391 79T429 175Q432 186 442 186Q449 186 451 180T451 166Q432 72 400 32T323 -9Q284 -9 268 24T264 114L277 169Q279 176 275 177T267 172Q212 71 170 31T89 -9ZM114 42Q138 42 167 71T224 146T277 245T315 347T330 430Q330 491 287 491Q261
491 232 468T177 404T129 314T94 209T81 102Q81 67 89 55T114 42ZM239 585Q221 578 216 591Q212 601 229 613L386 720Q414 740 434 740Q454 740 463 730T473 706Q473 691 463 680T422 657L239 585Z" />
<glyph unicode="&#xe2;" glyph-name="acircumflex" horiz-adv-x="474" d="M89 -9Q53 -9 33 22T13 113Q13 170 29 227T73 337T136 429T211 492T290 516Q309 516 326 509T354 485Q360 476 366 476Q372 476 378 485Q389 501 396 505T409 510Q422 510 419 496L330
113Q315 48 350 48Q373 48 391 79T429 175Q432 186 442 186Q449 186 451 180T451 166Q432 72 400 32T323 -9Q284 -9 268 24T264 114L277 169Q279 176 275 177T267 172Q212 71 170 31T89 -9ZM114 42Q138 42 167 71T224 146T277 245T315 347T330 430Q330 491 287
491Q261 491 232 468T177 404T129 314T94 209T81 102Q81 67 89 55T114 42ZM186 586Q170 576 162 586Q154 596 167 607L311 729Q325 740 339 740H358Q372 740 380 729L468 607Q474 598 469 591Q462 582 448 592L341 675L186 586Z" />
<glyph unicode="&#xe3;" glyph-name="atilde" horiz-adv-x="474" d="M89 -9Q53 -9 33 22T13 113Q13 170 29 227T73 337T136 429T211 492T290 516Q309 516 326 509T354 485Q360 476 366 476Q372 476 378 485Q389 501 396 505T409 510Q422 510 419 496L330 113Q315
48 350 48Q373 48 391 79T429 175Q432 186 442 186Q449 186 451 180T451 166Q432 72 400 32T323 -9Q284 -9 268 24T264 114L277 169Q279 176 275 177T267 172Q212 71 170 31T89 -9ZM114 42Q138 42 167 71T224 146T277 245T315 347T330 430Q330 491 287 491Q261
491 232 468T177 404T129 314T94 209T81 102Q81 67 89 55T114 42ZM389 597Q367 597 351 607T322 629T293 652T257 662Q230 662 213 650T181 611Q175 599 165 599Q160 599 157 603T157 614Q178 665 204 691T271 718Q294 718 310 708T340 686T368 663T403 653Q430
653 447 665T478 704Q484 716 494 716Q500 716 503 712T503 701Q481 650 455 624T389 597Z" />
<glyph unicode="&#xe4;" glyph-name="adieresis" horiz-adv-x="474" d="M89 -9Q53 -9 33 22T13 113Q13 170 29 227T73 337T136 429T211 492T290 516Q309 516 326 509T354 485Q360 476 366 476Q372 476 378 485Q389 501 396 505T409 510Q422 510 419 496L330 113Q315
48 350 48Q373 48 391 79T429 175Q432 186 442 186Q449 186 451 180T451 166Q432 72 400 32T323 -9Q284 -9 268 24T264 114L277 169Q279 176 275 177T267 172Q212 71 170 31T89 -9ZM114 42Q138 42 167 71T224 146T277 245T315 347T330 430Q330 491 287 491Q261
491 232 468T177 404T129 314T94 209T81 102Q81 67 89 55T114 42ZM230 605Q210 605 198 618T186 651Q186 676 202 691T239 706Q259 706 271 693T283 660Q283 635 267 620T230 605ZM421 605Q401 605 389 618T377 651Q377 676 393 691T430 706Q450 706 462 693T474
660Q474 635 458 620T421 605Z" />
<glyph unicode="&#xe5;" glyph-name="aring" horiz-adv-x="474" d="M89 -9Q53 -9 33 22T13 113Q13 170 29 227T73 337T136 429T211 492T290 516Q309 516 326 509T354 485Q360 476 366 476Q372 476 378 485Q389 501 396 505T409 510Q422 510 419 496L330 113Q315
48 350 48Q373 48 391 79T429 175Q432 186 442 186Q449 186 451 180T451 166Q432 72 400 32T323 -9Q284 -9 268 24T264 114L277 169Q279 176 275 177T267 172Q212 71 170 31T89 -9ZM114 42Q138 42 167 71T224 146T277 245T315 347T330 430Q330 491 287 491Q261
491 232 468T177 404T129 314T94 209T81 102Q81 67 89 55T114 42ZM325 561Q278 561 251 590T224 659Q224 692 240 718T283 760T341 776Q388 776 414 747T441 678Q441 646 425 619T382 577T325 561ZM327 588Q361 588 385 614T410 678Q410 708 391 728T339 749Q304
749 280 723T255 659Q255 629 274 609T327 588Z" />
<glyph unicode="&#xe6;" glyph-name="ae" horiz-adv-x="618" d="M91 -9Q55 -9 34 22T13 113Q13 170 29 227T73 337T136 429T211 492T290 516Q309 516 326 509T354 485Q360 476 366 476Q372 476 378 485Q389 501 396 505T409 510Q422 510 419 496L408 448Q439 479
473 497T539 516Q586 516 606 494T627 433Q627 388 596 344T508 264T375 212Q353 207 352 187Q351 180 351 173T351 158Q351 101 370 72T424 43Q462 43 497 78T557 177Q560 186 569 186Q575 186 576 181T576 169Q544 81 499 36T399 -9Q346 -9 314 32T282 150Q282
172 285 195Q282 190 279 184T272 172Q217 71 173 31T91 -9ZM114 42Q138 42 167 71T224 146T277 245T315 347T330 430Q330 491 287 491Q261 491 232 468T177 404T129 314T94 209T81 102Q81 67 89 55T114 42ZM362 250Q360 243 364 239T376 236Q438 253 480 287T543
365T565 449Q565 491 532 491Q503 491 469 457T406 368T362 250Z" />
<glyph unicode="&#xe7;" glyph-name="ccedilla" horiz-adv-x="351" d="M142 -9Q87 -9 51 36T15 153Q15 220 36 284T94 401T175 485T265 516Q313 516 346 490Q351 486 352 484T351 473L324 342Q321 328 311 328Q300 328 298 343L293 414Q290 460 280 474T249 488Q221
488 192 461T139 387T100 284T85 169Q85 43 167 43Q206 43 237 79T296 191Q299 201 310 201Q316 201 317 197T315 179Q305 124 279 82T218 16T142 -9ZM154 13L130 -43Q127 -49 133 -51Q161 -60 176 -78T192 -123Q192 -166 158 -190T80 -215Q45 -215 24 -200T3 -161Q3
-148 10 -140T31 -131Q46 -131 49 -140T54 -163T62 -185T87 -195Q116 -195 130 -175T145 -133Q145 -93 101 -84Q91 -82 95 -71L130 13H154Z" />
<glyph unicode="&#xe8;" glyph-name="egrave" horiz-adv-x="348" d="M129 -9Q76 -9 44 32T12 150Q12 216 35 281T97 399T180 484T269 516Q316 516 336 494T357 433Q357 388 326 344T238 264T105 212Q83 207 82 187Q81 180 81 173T81 158Q81 101 100 72T154 43Q192
43 227 78T287 177Q290 186 299 186Q305 186 306 181T306 169Q274 81 229 36T129 -9ZM92 250Q90 243 94 239T106 236Q168 253 210 287T273 365T295 449Q295 491 262 491Q233 491 199 457T136 368T92 250ZM363 584L222 661Q182 682 182 707Q182 721 193 730T220
740Q234 740 243 736T266 719L383 608Q391 600 391 593Q391 584 383 581T363 584Z" />
<glyph unicode="&#xe9;" glyph-name="eacute" horiz-adv-x="348" d="M129 -9Q76 -9 44 32T12 150Q12 216 35 281T97 399T180 484T269 516Q316 516 336 494T357 433Q357 388 326 344T238 264T105 212Q83 207 82 187Q81 180 81 173T81 158Q81 101 100 72T154 43Q192
43 227 78T287 177Q290 186 299 186Q305 186 306 181T306 169Q274 81 229 36T129 -9ZM92 250Q90 243 94 239T106 236Q168 253 210 287T273 365T295 449Q295 491 262 491Q233 491 199 457T136 368T92 250ZM216 585Q198 578 193 591Q189 601 206 613L363 720Q391
740 411 740Q431 740 440 730T450 706Q450 691 440 680T399 657L216 585Z" />
<glyph unicode="&#xea;" glyph-name="ecircumflex" horiz-adv-x="348" d="M129 -9Q76 -9 44 32T12 150Q12 216 35 281T97 399T180 484T269 516Q316 516 336 494T357 433Q357 388 326 344T238 264T105 212Q83 207 82 187Q81 180 81 173T81 158Q81 101 100 72T154
43Q192 43 227 78T287 177Q290 186 299 186Q305 186 306 181T306 169Q274 81 229 36T129 -9ZM92 250Q90 243 94 239T106 236Q168 253 210 287T273 365T295 449Q295 491 262 491Q233 491 199 457T136 368T92 250ZM419 586Q403 576 395 586Q387 596 400 607L544 729Q558
740 572 740H591Q605 740 613 729L701 607Q707 598 702 591Q695 582 681 592L574 675L419 586Z" />
<glyph unicode="&#xeb;" glyph-name="edieresis" horiz-adv-x="348" d="M129 -9Q76 -9 44 32T12 150Q12 216 35 281T97 399T180 484T269 516Q316 516 336 494T357 433Q357 388 326 344T238 264T105 212Q83 207 82 187Q81 180 81 173T81 158Q81 101 100 72T154
43Q192 43 227 78T287 177Q290 186 299 186Q305 186 306 181T306 169Q274 81 229 36T129 -9ZM92 250Q90 243 94 239T106 236Q168 253 210 287T273 365T295 449Q295 491 262 491Q233 491 199 457T136 368T92 250ZM207 605Q187 605 175 618T163 651Q163 676 179 691T216
706Q236 706 248 693T260 660Q260 635 244 620T207 605ZM398 605Q378 605 366 618T354 651Q354 676 370 691T407 706Q427 706 439 693T451 660Q451 635 435 620T398 605Z" />
<glyph unicode="&#xec;" glyph-name="igrave" horiz-adv-x="288" d="M122 -10Q89 -10 75 14T74 95L148 412Q153 434 150 446T131 459Q113 459 92 433T43 332Q39 319 29 319Q14 319 21 337Q43 406 67 445T117 500T163 516Q198 516 212 492T213 411L139 94Q134 72
137 60T156 47Q174 47 195 73T244 174Q248 187 258 187Q273 187 266 169Q245 101 220 62T169 6T122 -10ZM549 584L408 661Q368 682 368 707Q368 721 379 730T406 740Q420 740 429 736T452 719L569 608Q577 600 577 593Q577 584 569 581T549 584Z" />
<glyph unicode="&#xed;" glyph-name="iacute" horiz-adv-x="288" d="M122 -10Q89 -10 75 14T74 95L148 412Q153 434 150 446T131 459Q113 459 92 433T43 332Q39 319 29 319Q14 319 21 337Q43 406 67 445T117 500T163 516Q198 516 212 492T213 411L139 94Q134 72
137 60T156 47Q174 47 195 73T244 174Q248 187 258 187Q273 187 266 169Q245 101 220 62T169 6T122 -10ZM402 585Q384 578 379 591Q375 601 392 613L549 720Q577 740 597 740Q617 740 626 730T636 706Q636 691 626 680T585 657L402 585Z" />
<glyph unicode="&#xee;" glyph-name="icircumflex" horiz-adv-x="288" d="M122 -10Q89 -10 75 14T74 95L148 412Q153 434 150 446T131 459Q113 459 92 433T43 332Q39 319 29 319Q14 319 21 337Q43 406 67 445T117 500T163 516Q198 516 212 492T213 411L139 94Q134
72 137 60T156 47Q174 47 195 73T244 174Q248 187 258 187Q273 187 266 169Q245 101 220 62T169 6T122 -10ZM349 586Q333 576 325 586Q317 596 330 607L474 729Q488 740 502 740H521Q535 740 543 729L631 607Q637 598 632 591Q625 582 611 592L504 675L349 586Z"
/>
<glyph unicode="&#xef;" glyph-name="idieresis" horiz-adv-x="288" d="M122 -10Q89 -10 75 14T74 95L148 412Q153 434 150 446T131 459Q113 459 92 433T43 332Q39 319 29 319Q14 319 21 337Q43 406 67 445T117 500T163 516Q198 516 212 492T213 411L139 94Q134
72 137 60T156 47Q174 47 195 73T244 174Q248 187 258 187Q273 187 266 169Q245 101 220 62T169 6T122 -10ZM393 605Q373 605 361 618T349 651Q349 676 365 691T402 706Q422 706 434 693T446 660Q446 635 430 620T393 605ZM584 605Q564 605 552 618T540 651Q540
676 556 691T593 706Q613 706 625 693T637 660Q637 635 621 620T584 605Z" />
<glyph unicode="&#xf0;" glyph-name="eth" horiz-adv-x="406" d="M159 -9Q116 -9 85 15T37 82T19 178Q19 221 33 269T75 359T140 427T224 454Q274 454 305 421Q310 417 314 418T318 425Q318 532 279 609T160 727Q152 732 152 738Q152 746 157 750T173 750Q237
724 283 665T355 526T381 359Q381 316 372 266T346 167T302 79T240 15T159 -9ZM161 17Q201 17 229 46T274 121T300 216T308 305Q308 355 288 392T225 429Q194 429 171 408T130 352T102 279T86 204T81 141Q81 86 100 52T161 17Z" />
<glyph unicode="&#xf1;" glyph-name="ntilde" horiz-adv-x="521" d="M53 13L148 412Q153 434 150 446T131 459Q113 459 92 433T43 332Q39 319 29 319Q14 319 21 337Q43 406 67 445T117 500T163 516Q196 516 210 492T211 411L186 303Q185 296 189 295T196 300Q235
381 271 428T339 496T397 516Q434 516 451 486T451 394L375 104Q368 76 374 62T396 48Q416 48 435 74T476 175Q479 186 489 186Q497 186 498 180T498 166Q479 98 457 60T413 6T367 -9Q331 -9 313 21T311 114L388 404Q399 443 392 458T370 473Q348 473 320 446T263
371T206 263T156 138T119 11Q116 0 105 0H64Q50 0 53 13ZM413 597Q391 597 375 607T346 629T317 652T281 662Q254 662 237 650T205 611Q199 599 189 599Q184 599 181 603T181 614Q202 665 228 691T295 718Q318 718 334 708T364 686T392 663T427 653Q454 653 471
665T502 704Q508 716 518 716Q524 716 527 712T527 701Q505 650 479 624T413 597Z" />
<glyph unicode="&#xf2;" glyph-name="ograve" horiz-adv-x="414" d="M154 -9Q92 -9 56 42T20 182Q20 247 41 307T96 414T173 488T259 516Q321 516 357 465T393 325Q393 260 372 200T317 93T240 19T154 -9ZM152 15Q184 15 214 46T270 128T310 241T325 367Q325 492
260 492Q229 492 198 462T143 380T103 267T88 141Q88 15 152 15ZM356 584L215 661Q175 682 175 707Q175 721 186 730T213 740Q227 740 236 736T259 719L376 608Q384 600 384 593Q384 584 376 581T356 584Z" />
<glyph unicode="&#xf3;" glyph-name="oacute" horiz-adv-x="414" d="M154 -9Q92 -9 56 42T20 182Q20 247 41 307T96 414T173 488T259 516Q321 516 357 465T393 325Q393 260 372 200T317 93T240 19T154 -9ZM152 15Q184 15 214 46T270 128T310 241T325 367Q325 492
260 492Q229 492 198 462T143 380T103 267T88 141Q88 15 152 15ZM209 585Q191 578 186 591Q182 601 199 613L356 720Q384 740 404 740Q424 740 433 730T443 706Q443 691 433 680T392 657L209 585Z" />
<glyph unicode="&#xf4;" glyph-name="ocircumflex" horiz-adv-x="414" d="M154 -9Q92 -9 56 42T20 182Q20 247 41 307T96 414T173 488T259 516Q321 516 357 465T393 325Q393 260 372 200T317 93T240 19T154 -9ZM152 15Q184 15 214 46T270 128T310 241T325 367Q325
492 260 492Q229 492 198 462T143 380T103 267T88 141Q88 15 152 15ZM412 586Q396 576 388 586Q380 596 393 607L537 729Q551 740 565 740H584Q598 740 606 729L694 607Q700 598 695 591Q688 582 674 592L567 675L412 586Z" />
<glyph unicode="&#xf5;" glyph-name="otilde" horiz-adv-x="414" d="M154 -9Q92 -9 56 42T20 182Q20 247 41 307T96 414T173 488T259 516Q321 516 357 465T393 325Q393 260 372 200T317 93T240 19T154 -9ZM152 15Q184 15 214 46T270 128T310 241T325 367Q325 492
260 492Q229 492 198 462T143 380T103 267T88 141Q88 15 152 15ZM615 597Q593 597 577 607T548 629T519 652T483 662Q456 662 439 650T407 611Q401 599 391 599Q386 599 383 603T383 614Q404 665 430 691T497 718Q520 718 536 708T566 686T594 663T629 653Q656
653 673 665T704 704Q710 716 720 716Q726 716 729 712T729 701Q707 650 681 624T615 597Z" />
<glyph unicode="&#xf6;" glyph-name="odieresis" horiz-adv-x="414" d="M154 -9Q92 -9 56 42T20 182Q20 247 41 307T96 414T173 488T259 516Q321 516 357 465T393 325Q393 260 372 200T317 93T240 19T154 -9ZM152 15Q184 15 214 46T270 128T310 241T325 367Q325
492 260 492Q229 492 198 462T143 380T103 267T88 141Q88 15 152 15ZM200 605Q180 605 168 618T156 651Q156 676 172 691T209 706Q229 706 241 693T253 660Q253 635 237 620T200 605ZM391 605Q371 605 359 618T347 651Q347 676 363 691T400 706Q420 706 432 693T444
660Q444 635 428 620T391 605Z" />
<glyph unicode="&#xf7;" glyph-name="divide" horiz-adv-x="531" d="M326 485Q305 485 292 498T279 532Q279 558 297 574T335 590Q355 590 368 577T382 543Q382 517 364 501T326 485ZM93 354Q83 354 85 364L88 378Q90 388 101 388H492Q501 388 499 378L496 364Q494
354 484 354H93ZM250 153Q229 153 216 166T203 200Q203 226 221 242T259 258Q279 258 292 245T306 211Q306 185 288 169T250 153Z" />
<glyph unicode="&#xf8;" glyph-name="oslash" horiz-adv-x="414" d="M17 -50Q4 -50 11 -38L58 40Q20 91 20 182Q20 247 41 307T96 414T173 488T259 516Q300 516 330 493L366 552Q370 560 378 560H387Q400 560 393 548L349 475Q393 424 393 325Q393 260 372 200T317
93T240 19T154 -9Q108 -9 75 20L38 -42Q34 -50 26 -50H17ZM88 141Q88 115 91 95L310 459Q294 492 260 492Q229 492 198 462T143 380T103 267T88 141ZM152 15Q184 15 214 46T270 128T310 241T325 367Q325 402 320 427L99 59Q115 15 152 15Z" />
<glyph unicode="&#xf9;" glyph-name="ugrave" horiz-adv-x="508" d="M115 -9Q78 -9 65 24T66 113L145 403Q153 432 149 448T131 464Q108 464 85 429T44 332Q41 321 31 321Q17 321 22 341Q45 425 82 470T165 516Q201 516 213 483T209 393L129 103Q110 34 142 34Q162
34 188 61T242 135T299 242T350 368T388 499Q391 510 402 510H442Q456 510 453 497L359 95Q348 48 376 48Q418 48 464 175Q468 188 478 188Q484 188 486 183T486 170Q459 85 422 38T344 -9Q272 -9 296 96L322 207Q324 214 320 215T312 210Q254 90 205 41T115 -9ZM383
584L242 661Q202 682 202 707Q202 721 213 730T240 740Q254 740 263 736T286 719L403 608Q411 600 411 593Q411 584 403 581T383 584Z" />
<glyph unicode="&#xfa;" glyph-name="uacute" horiz-adv-x="508" d="M115 -9Q78 -9 65 24T66 113L145 403Q153 432 149 448T131 464Q108 464 85 429T44 332Q41 321 31 321Q17 321 22 341Q45 425 82 470T165 516Q201 516 213 483T209 393L129 103Q110 34 142 34Q162
34 188 61T242 135T299 242T350 368T388 499Q391 510 402 510H442Q456 510 453 497L359 95Q348 48 376 48Q418 48 464 175Q468 188 478 188Q484 188 486 183T486 170Q459 85 422 38T344 -9Q272 -9 296 96L322 207Q324 214 320 215T312 210Q254 90 205 41T115 -9ZM236
585Q218 578 213 591Q209 601 226 613L383 720Q411 740 431 740Q451 740 460 730T470 706Q470 691 460 680T419 657L236 585Z" />
<glyph unicode="&#xfb;" glyph-name="ucircumflex" horiz-adv-x="508" d="M115 -9Q78 -9 65 24T66 113L145 403Q153 432 149 448T131 464Q108 464 85 429T44 332Q41 321 31 321Q17 321 22 341Q45 425 82 470T165 516Q201 516 213 483T209 393L129 103Q110 34 142
34Q162 34 188 61T242 135T299 242T350 368T388 499Q391 510 402 510H442Q456 510 453 497L359 95Q348 48 376 48Q418 48 464 175Q468 188 478 188Q484 188 486 183T486 170Q459 85 422 38T344 -9Q272 -9 296 96L322 207Q324 214 320 215T312 210Q254 90 205 41T115
-9ZM183 586Q167 576 159 586Q151 596 164 607L308 729Q322 740 336 740H355Q369 740 377 729L465 607Q471 598 466 591Q459 582 445 592L338 675L183 586Z" />
<glyph unicode="&#xfc;" glyph-name="udieresis" horiz-adv-x="508" d="M115 -9Q78 -9 65 24T66 113L145 403Q153 432 149 448T131 464Q108 464 85 429T44 332Q41 321 31 321Q17 321 22 341Q45 425 82 470T165 516Q201 516 213 483T209 393L129 103Q110 34 142
34Q162 34 188 61T242 135T299 242T350 368T388 499Q391 510 402 510H442Q456 510 453 497L359 95Q348 48 376 48Q418 48 464 175Q468 188 478 188Q484 188 486 183T486 170Q459 85 422 38T344 -9Q272 -9 296 96L322 207Q324 214 320 215T312 210Q254 90 205 41T115
-9ZM227 605Q207 605 195 618T183 651Q183 676 199 691T236 706Q256 706 268 693T280 660Q280 635 264 620T227 605ZM418 605Q398 605 386 618T374 651Q374 676 390 691T427 706Q447 706 459 693T471 660Q471 635 455 620T418 605Z" />
<glyph unicode="&#xfd;" glyph-name="yacute" horiz-adv-x="418" d="M-27 -215Q-65 -215 -86 -196T-107 -148Q-107 -127 -96 -117T-72 -106Q-53 -106 -45 -116T-33 -139T-21 -163T7 -173Q44 -173 80 -144T139 -63T159 53L144 412Q143 438 135 448T115 459Q93 459
73 433T40 332Q37 319 27 319Q13 319 16 337Q28 406 49 445T95 500T141 516Q172 516 190 495T210 421L224 37Q224 30 228 29T237 33Q272 82 300 134T346 238T363 332Q363 374 354 398T336 440T326 477Q326 516 360 516Q408 516 408 410Q408 352 388 284T334 145T255
10T162 -105T65 -185T-27 -215ZM210 585Q192 578 187 591Q183 601 200 613L357 720Q385 740 405 740Q425 740 434 730T444 706Q444 691 434 680T393 657L210 585Z" />
<glyph unicode="&#xfe;" glyph-name="thorn" horiz-adv-x="438" d="M-88 -205Q-101 -205 -101 -194Q-101 -184 -85 -182L-71 -180Q-51 -177 -42 -169T-27 -138L106 436Q108 444 104 448T91 448Q81 443 72 438T54 426Q45 420 39 422T33 432Q33 439 43 446Q71 465
101 479Q118 487 122 505L153 640Q158 658 154 665T135 673L105 676Q90 677 92 689Q94 698 106 700Q142 706 171 714T218 737Q226 743 233 743Q245 743 242 728L193 527Q190 510 206 513Q229 516 250 516Q324 516 371 474T418 345Q418 277 393 214T327 100T237
21T139 -9Q112 -9 88 2Q73 9 70 -6L40 -138Q35 -160 40 -167T65 -177L91 -181Q109 -184 109 -193Q109 -205 92 -205H-88ZM141 16Q176 16 212 45T279 124T329 236T348 363Q348 430 319 459T234 489Q184 489 177 455L98 115Q80 16 141 16Z" />
<glyph unicode="&#xff;" glyph-name="ydieresis" horiz-adv-x="418" d="M-27 -215Q-65 -215 -86 -196T-107 -148Q-107 -127 -96 -117T-72 -106Q-53 -106 -45 -116T-33 -139T-21 -163T7 -173Q44 -173 80 -144T139 -63T159 53L144 412Q143 438 135 448T115 459Q93
459 73 433T40 332Q37 319 27 319Q13 319 16 337Q28 406 49 445T95 500T141 516Q172 516 190 495T210 421L224 37Q224 30 228 29T237 33Q272 82 300 134T346 238T363 332Q363 374 354 398T336 440T326 477Q326 516 360 516Q408 516 408 410Q408 352 388 284T334
145T255 10T162 -105T65 -185T-27 -215ZM201 605Q181 605 169 618T157 651Q157 676 173 691T210 706Q230 706 242 693T254 660Q254 635 238 620T201 605ZM392 605Q372 605 360 618T348 651Q348 676 364 691T401 706Q421 706 433 693T445 660Q445 635 429 620T392
605Z" />
<glyph unicode="&#x2013;" glyph-name="endash" horiz-adv-x="505" d="M93 259Q83 259 85 269L88 283Q90 293 101 293H422Q431 293 429 283L426 269Q424 259 414 259H93Z" />
<glyph unicode="&#x2014;" glyph-name="emdash" horiz-adv-x="715" d="M93 259Q83 259 85 269L88 283Q90 293 101 293H632Q641 293 639 283L636 269Q634 259 624 259H93Z" />
<glyph unicode="&#x2018;" glyph-name="quoteleft" horiz-adv-x="166" d="M161 562Q138 562 125 577T111 617Q111 666 145 712T234 786Q243 791 249 790T255 781Q255 774 246 769Q206 745 191 722T175 681Q175 665 184 656T201 638T210 609Q210 590 197 576T161 562Z" />
<glyph unicode="&#x2019;" glyph-name="quoteright" horiz-adv-x="166" d="M112 506Q103 501 97 502T91 511Q91 518 100 523Q140 547 155 570T171 611Q171 627 163 636T145 655T136 683Q136 703 149 716T185 730Q208 730 221 715T235 675Q235 626 201 580T112 506Z" />
<glyph unicode="&#x201a;" glyph-name="quotesinglbase" horiz-adv-x="166" d="M-34 -128Q-43 -133 -49 -132T-55 -123Q-55 -116 -46 -111Q-6 -87 9 -64T25 -23Q25 -7 17 2T-1 21T-10 49Q-10 69 3 82T39 96Q62 96 75 81T89 41Q89 -8 55 -54T-34 -128Z" />
<glyph unicode="&#x201c;" glyph-name="quotedblleft" horiz-adv-x="316" d="M377 562Q354 562 341 577T327 617Q327 666 361 712T450 786Q459 791 465 790T471 781Q471 774 462 769Q422 745 407 722T391 681Q391 665 400 656T417 638T426 609Q426 590 413 576T377
562ZM271 562Q248 562 235 577T221 617Q221 666 255 712T344 786Q353 791 359 790T365 781Q365 774 356 769Q316 745 301 722T285 681Q285 665 294 656T311 638T320 609Q320 590 307 576T271 562Z" />
<glyph unicode="&#x201d;" glyph-name="quotedblright" horiz-adv-x="316" d="M112 506Q103 501 97 502T91 511Q91 518 100 523Q140 547 155 570T171 611Q171 627 163 636T145 655T136 683Q136 703 149 716T185 730Q208 730 221 715T235 675Q235 626 201 580T112
506ZM262 506Q253 501 247 502T241 511Q241 518 250 523Q290 547 305 570T321 611Q321 627 313 636T295 655T286 683Q286 703 299 716T335 730Q358 730 371 715T385 675Q385 626 351 580T262 506Z" />
<glyph unicode="&#x201e;" glyph-name="quotedblbase" horiz-adv-x="316" d="M-34 -128Q-43 -133 -49 -132T-55 -123Q-55 -116 -46 -111Q-6 -87 9 -64T25 -23Q25 -7 17 2T-1 21T-10 49Q-10 69 3 82T39 96Q62 96 75 81T89 41Q89 -8 55 -54T-34 -128ZM116 -128Q107
-133 101 -132T95 -123Q95 -116 104 -111Q144 -87 159 -64T175 -23Q175 -7 167 2T149 21T140 49Q140 69 153 82T189 96Q212 96 225 81T239 41Q239 -8 205 -54T116 -128Z" />
<glyph unicode="&#x2022;" glyph-name="bullet" horiz-adv-x="300" d="M113 292Q82 292 63 312T43 362Q43 401 69 425T127 449Q157 449 177 429T197 379Q197 339 170 316T113 292Z" />
<glyph unicode="&#x2039;" glyph-name="guilsinglleft" horiz-adv-x="267" d="M128 96L60 247Q52 264 68 280L199 412Q207 420 211 422T219 424Q227 424 228 419T226 408L123 267Q116 259 119 245L156 92Q157 88 154 84T145 79Q136 79 128 96Z" />
<glyph unicode="&#x203a;" glyph-name="guilsinglright" horiz-adv-x="266" d="M137 407L205 256Q213 239 197 223L66 91Q58 83 54 81T46 79Q39 79 38 85T39 95L142 236Q149 244 146 258L109 411Q108 416 111 420T120 424Q129 424 137 407Z" />
</font>
</defs>
</svg>
